Торрент файл
скачать торрент магнет ссылка Добавлен: 25 ноя 2017, 12:23
Размер: 6.72 ГБ
Сидеров: 20
Личеров: 2
Статус: (salma3)
Автор

СообщениеДобавлено: 25 ноя 2017, 12:23 

Не в сети
Супермодератор
Аватара пользователя
Дата регистрации:
15 фев 2012, 16:44
Возраст: 29
Спасибо: 7380 / 2147
Сообщения: 76322
Год выхода: 2014
Жанр: Мелодрама
Режиссер: Александр Басаев

В ролях: Анна Невская, Никита Салопин, Екатерина Порубель, Любомирас Лауцявичюс, Станислав Эрдлей, Ирина Тё, Елена Ященко

О фильме:
Аня и Валера Хохловы поженились в юности по большой любви, прожили вместе семнадцать счастливых лет, помотались по военным гарнизонам, воспитывают двух детей. Идиллия рушится, когда Валера решает уволиться из армии, чтобы заняться бизнесом, и привозит семью в крупный город. На дне рождения мужа Аня с ужасом узнает, что у Валеры есть любовница - яркая и сексуальная Ника, директор рекламного агентства. Валера даже не пытается оправдаться и признаётся, что Ника - не просто любовница, а любимая женщина. Аня благородно переносит предательство и без упреков и скандалов отпускает Валеру.



Страна: Украина
Продолжительность: 4 х ~ 00:45:00
Перевод: Не требуется

Файл
Кодек: h.264
Качество: WEB-DLRip 1080p
Видео: MPEG-4 AVC, ~ 5120 Кбит/с, 1920x1080, 25,000 кадр/с
Звук: Русский (AC3, 2 ch, 256 Кбит/с)

Семпл

General
Unique ID : 201493324477513508332366275594601891277 (0x979633E57E3F96BB8057F750365405CD)
Complete name : D:uTorrentDrugaja.zhentsina.2014.WEB-DLRip.1080pDrugaja.zhentsina.(04.iz.04).2014.WEB-DLRip.1080p.MediaClub.mkv
Format : Matroska
Format version : Version 4 / Version 2
File size : 1.67 GiB
Duration : 44 min 47 s
Overall bit rate : 5 348 kb/s
Encoded date : UTC 2017-11-25 03:52:55
Writing application : mkvmerge v17.0.0 ('Be Ur Friend') 64-bit
Writing library : libebml v1.3.5 + libmatroska v1.4.8

Video
ID : 1
Format : AVC
Format/Info : Advanced Video Codec
Format profile : High@L4
Format settings : CABAC / 4 Ref Frames
Format settings, CABAC : Yes
Format settings, RefFrames : 4 frames
Codec ID : V_MPEG4/ISO/AVC
Duration : 44 min 47 s
Bit rate : 5 120 kb/s
Width : 1 920 pixels
Height : 1 080 pixels
Display aspect ratio : 16:9
Frame rate mode : Constant
Frame rate : 25.000 FPS
Color space : YUV
Chroma subsampling : 4:2:0
Bit depth : 8 bits
Scan type : Progressive
Bits/(Pixel*Frame) : 0.099
Stream size : 1.59 GiB (95%)
Title : WEB-DLRip by Silverok
Writing library : x264 core 142
Encoding settings : cabac=1 / ref=3 / deblock=1:0:0 / analyse=0x3:0x113 / me=hex / subme=7 / psy=1 / psy_rd=1.00:0.00 / mixed_ref=1 / me_range=16 / chroma_me=1 / trellis=1 / 8x8dct=1 / cqm=0 / deadzone=21,11 / fast_pskip=1 / chroma_qp_offset=-2 / threads=48 / lookahead_threads=8 / sliced_threads=0 / nr=0 / decimate=1 / interlaced=0 / bluray_compat=0 / constrained_intra=0 / bframes=6 / b_pyramid=2 / b_adapt=1 / b_bias=0 / direct=1 / weightb=1 / open_gop=0 / weightp=2 / keyint=50 / keyint_min=26 / scenecut=0 / intra_refresh=0 / rc_lookahead=40 / rc=2pass / mbtree=1 / bitrate=5120 / ratetol=1.0 / qcomp=0.60 / qpmin=0 / qpmax=69 / qpstep=4 / cplxblur=20.0 / qblur=0.5 / vbv_maxrate=7680 / vbv_bufsize=20480 / nal_hrd=none / filler=0 / ip_ratio=1.40 / aq=1:1.00
Default : Yes
Forced : No

Audio
ID : 2
Format : AC-3
Format/Info : Audio Coding 3
Codec ID : A_AC3
Duration : 44 min 47 s
Bit rate mode : Constant
Bit rate : 256 kb/s
Channel(s) : 2 channels
Channel positions : Front: L R
Sampling rate : 48.0 kHz
Frame rate : 31.250 FPS (1536 SPF)
Bit depth : 16 bits
Compression mode : Lossy
Stream size : 82.0 MiB (5%)
Language : Russian
Service kind : Complete Main
Default : Yes
Forced : No


Релиз от: | Silverok


_________________
Проголосуй за трекер Открытый торрент трекер - RUS-MEDIA.ORG

Проголосуй Открытый торрент трекер - RUS-MEDIA.ORG


Вернуться к началу
 Профиль Отправить личное сообщение  
 
   Похожие торренты   Автор   Торрент   Размер 
В этой теме нет новых непрочитанных сообщений. Другая женщина / Another Woman [драма, 1988] HDRip, Dvo

salma3

0 | 0

1.46 ГБ

В этой теме нет новых непрочитанных сообщений. Невозможная женщина [01-02 из 02] [Мелодрама, 2018] WEB-DLRip

salma3

12 | 24

1.46 ГБ

В этой теме нет новых непрочитанных сообщений. Женщина с лилиями [Мелодрама, 2016] WEB-DLRip-AVC

salma3

567 | 85

1.37 ГБ

В этой теме нет новых непрочитанных сообщений. Невозможная женщина [01-02 из 02] [Мелодрама, 2018] WEB-DLRip

salma3

0 | 0

2.74 ГБ

В этой теме нет новых непрочитанных сообщений. Женщина с лилиями [Мелодрама, 2016] WEB-DLRip

salma3

1032 | 161

1.37 ГБ

В этой теме нет новых непрочитанных сообщений. Невозможная женщина [01-02 из 02] [Мелодрама, 2018] WEB-DLRip-AVC

salma3

0 | 2

2.18 ГБ

В этой теме нет новых непрочитанных сообщений. Женщина в беде [S03] [Мелодрама, криминал, 2016] WEB-DLRip-AVC

salma3

21 | 8

2.22 ГБ


Начать новую тему Ответить на тему  [ 1 сообщение ] 




Для Мосгорсуда, Роскомнадзора и рекламодателей:: mosgorsud-torrent[собачка]yandex.ru
cron