Торрент файл
скачать торрент магнет ссылка Добавлен: 18 ноя 2017, 12:28
Размер: 7.93 ГБ
Сидеров: 1737
Личеров: 654
Статус: (salma3)
Автор

СообщениеДобавлено: 17 ноя 2017, 21:21 

Не в сети
Супермодератор
Аватара пользователя
Дата регистрации:
15 фев 2012, 16:44
Возраст: 28
Спасибо: 7223 / 2147
Сообщения: 67839
Год выпуска: 2017
Жанр: Фантастика, боевик, триллер
Режиссер: Энди Годдард, Марк Йобст, Кари Скогланд

В ролях: Джон Бернтал, Джейсон Р. Мур, Эбон Мосс-Бакрак, Майкл Натансон, Джейми Рэй Ньюман, Эмбер Роуз Рева, Пол Шульц, Даниэль Уэббер, Дебора Энн Уолл

О сериале: После того, как семья Фрэнка Касла была убита во время перестрелки нескольких банд Нью-Йорка, он решает отомстить и начинает охоту на преступников города. В преступном мире он становится известен как Каратель.



Выпущено: США, Marvel Television
Продолжительность: 1 x ~ 00:50:00
Перевод: Любительский (многоголосый, закадровый)[КОЛДФИЛЬМ]

Качество: WEBRip
Видео: 720x400 (16:9), 23.976 fps, XviD ~1 400 kbps avg
Аудио: 44.1 kHz, MPEG Layer 3, 2 ch, ~192 kbps avg



General
Complete name : The PunisherThe_Punisher_S01E01.avi
Format : AVI
Format/Info : Audio Video Interleave
File size : 602 MiB
Duration : 51mn 45s
Overall bit rate : 1 626 Kbps
Writing application : Lavf57.40.101

Video
ID : 1
Format : MPEG-4 Visual
Format settings, BVOP : No
Format settings, QPel : No
Format settings, GMC : No warppoints
Format settings, Matrix : Default (H.263)
Codec ID : FMP4
Duration : 51mn 44s
Bit rate : 1 403 Kbps
Width : 720 pixels
Height : 400 pixels
Display aspect ratio : 16:9
Frame rate mode : Variable
Frame rate : 119.880 (24/30) fps
Minimum frame rate : 23.976 fps
Maximum frame rate : 29.970 fps
Color space : YUV
Chroma subsampling : 4:2:0
Bit depth : 8 bits
Scan type : Progressive
Compression mode : Lossy
Bits/(Pixel*Frame) : 0.041
Stream size : 519 MiB (86%)
Writing library : Lavc57.48.101

Audio
ID : 0
Format : MPEG Audio
Format version : Version 1
Format profile : Layer 3
Mode : Joint stereo
Mode extension : MS Stereo
Codec ID : 55
Codec ID/Hint : MP3
Duration : 51mn 45s
Bit rate mode : Constant
Bit rate : 192 Kbps
Channel(s) : 2 channels
Sampling rate : 44.1 KHz
Compression mode : Lossy
Stream size : 71.1 MiB (12%)
Alignment : Aligned on interleaves
Interleave, duration : 8 ms (1.00 video frame)


_________________
Проголосуй за трекер Открытый торрент трекер - RUS-MEDIA.ORG

Проголосуй Открытый торрент трекер - RUS-MEDIA.ORG


Вернуться к началу
 Профиль Отправить личное сообщение  
 
   Похожие торренты   Автор   Торрент   Размер 
В этой теме нет новых непрочитанных сообщений. Каратель / The Punisher [S01] [Фантастика, боевик, триллер, 2017] WEBRip, Mvo [LostFilm]

salma3

0 | 0

8.53 ГБ

В этой теме нет новых непрочитанных сообщений. Каратель / The Punisher [S01] [фантастика, боевик, триллер, 2017] WEBRip, Mvo [NewStudio]

salma3

692 | 580

8.37 ГБ

В этой теме нет новых непрочитанных сообщений. Каратель / The Punisher [S01] [фантастика, боевик, триллер, 2017] WEBRip 1080p, Mvo [NewStudio]

salma3

376 | 400

21.89 ГБ

В этой теме нет новых непрочитанных сообщений. Каратель / The Punisher [S01] [Фантастика, боевик, триллер, 2017] WEBRip 1080p, Mvo [BaibaKo]

salma3

156 | 369

21.81 ГБ

В этой теме нет новых непрочитанных сообщений. Каратель / The Punisher [S01] [фантастика, боевик, триллер, 2017] WEBRip 720p, Mvo [NewStudio]

salma3

132 | 226

37.98 ГБ

В этой теме нет новых непрочитанных сообщений. Каратель / The Punisher [S01] [Фантастика, боевик, триллер, 2017] WEBRip 2160p, Mvo [BaibaKo]

salma3

22 | 32

57.69 ГБ

В этой теме нет новых непрочитанных сообщений. Каратель / The Punisher [01х01 из 13] [Фантастика, боевик, триллер, 2017] WEBRip 720p, Dvo [Sunshine Studio]

salma3

0 | 0

995.88 МБ


СообщениеДобавлено: 18 ноя 2017, 12:28 

Не в сети
Супермодератор
Аватара пользователя
Дата регистрации:
15 фев 2012, 16:44
Возраст: 28
Спасибо: 7223 / 2147
Сообщения: 67839
salma3 писал(а):
Re: Каратель / The Punisher [S01] [Фантастика, боевик, триллер, 2017] WEBRip, Mvo

_________________
Проголосуй за трекер Открытый торрент трекер - RUS-MEDIA.ORG

Проголосуй Открытый торрент трекер - RUS-MEDIA.ORG


Вернуться к началу
 Профиль Отправить личное сообщение  
 
Начать новую тему Ответить на тему  [ Сообщений: 2 ] 




Для Мосгорсуда, Роскомнадзора и рекламодателей:: mosgorsud-torrent[собачка]yandex.ru
cron