Торрент файл
скачать торрент магнет ссылка Добавлен: 15 окт 2017, 12:07
Размер: 2.21 ГБ
Сидеров: 34
Личеров: 49
Статус: (salma3)
Автор

СообщениеДобавлено: 15 окт 2017, 12:07 

Не в сети
Супермодератор
Аватара пользователя
Дата регистрации:
15 фев 2012, 16:44
Возраст: 29
Спасибо: 7379 / 2147
Сообщения: 76148
Год выпуска: 2016
Жанр: боевик, триллер, драма, криминал
Режиссеры: Стив Бойум, МакДжи

В ролях: Клейн Кроуфорд, Дэймон Уайанс, Джордана Брюстер, Данте Браун, Джонатан Фернандес, Чандлер Кинни, Кевин Рам, Киша Шарп

Описание:

Коп из Техаса после семейной трагедии переезжает в Лос-Анджелес и становится напарником детектива, недавно пережившего сердечный приступ...

Страна: США
Продолжительность: х ~00:45:00
Перевод:Профессиональный (многоголосый закадровый)[LostFilm]

Качество: WEB-DLRip-AVC
Видео: 1024х576 (16:9), 23,976 fps, AVC (х264), , 2000 Kbps avg, 0.141 bit/pixel
Аудио: 48.0 KHz, AC3 Dolby Digital, 6 channels (Front: L C R, Side: L R, LFE), 384 kbps avg

Все раздачи сериала

    Общее
    Уникальный идентификатор : 298290751078859732994149568963880833049 (0xE068B57EA459E50B63CC979650525019)
    Полное имя : D:\Video\Боевик\smertelnoe_orugie_s02_lostfilm_rip_DIS_[tfile.ru]\smertelnoe_orugie_s02e01_lostfilm_rip_DIS_[tfile.ru].mkv
    Формат : Matroska
    Версия формата : Version 2
    Размер файла : 757 Мбайт
    Продолжительность : 44 м. 20 с.
    Общий поток : 2387 Кбит/сек
    Дата кодирования : UTC 2017-09-30 14:37:46 / UTC 2017-09-30 14:37:46
    Программа кодирования : Lavf54.63.104
    Библиотека кодирования : Lavf54.63.104

    Видео
    Идентификатор : 1
    Формат : AVC
    Формат/Информация : Advanced Video Codec
    Профиль формата :
    Параметр CABAC формата : Да
    Параметр RefFrames формата : 2 кадра
    Идентификатор кодека : V_MPEG4/ISO/AVC
    Продолжительность : 44 м. 20 с.
    Битрейт : 2000 Кбит/сек
    Ширина : 1024 пикселя
    Высота : 576 пикселей
    Соотношение сторон : 16:9
    Режим частоты кадров : Постоянный
    Частота кадров : 23,976 (24000/1001) кадра/сек
    Цветовое пространство : YUV
    Субдискретизация насыщенности : 4:2:0
    Битовая глубина : 8 бит
    Тип развёртки : Прогрессивная
    Бит/(Пиксели*Кадры) : 0.141
    Размер потока : 620 Мбайт (82%)
    Библиотека кодирования : x264 core 129
    Настройки программы : cabac=1 / ref=2 / deblock=1:0:0 / analyse=0x3:0x113 / me=hex / subme=6 / psy=1 / psy_rd=1.00:0.00 / mixed_ref=1 / me_range=16 / chroma_me=1 / trellis=0 / 8x8dct=1 / cqm=0 / deadzone=21,11 / fast_pskip=1 / chroma_qp_offset=-2 / threads=8 / lookahead_threads=1 / sliced_threads=0 / nr=0 / decimate=1 / interlaced=0 / bluray_compat=0 / constrained_intra=0 / bframes=0 / weightp=2 / keyint=250 / keyint_min=25 / scenecut=40 / intra_refresh=0 / rc_lookahead=40 / rc=2pass / mbtree=1 / bitrate=2000 / ratetol=1.0 / qcomp=0.60 / qpmin=10 / qpmax=51 / qpstep=4 / cplxblur=20.0 / qblur=0.5 / ip_ratio=1.41 / aq=1:1.00
    Default : Да
    Forced : Нет

    Аудио
    Идентификатор : 2
    Формат : AC-3
    Формат/Информация : Audio Coding 3
    Параметр Endianness формата : Big
    Идентификатор кодека : A_AC3
    Продолжительность : 44 м. 20 с.
    Вид битрейта : Постоянный
    Битрейт : 384 Кбит/сек
    Каналы : 6 каналов
    Расположение каналов : Front: L C R, Side: L R, LFE
    Частота : 48,0 КГц
    Частота кадров : 31,250 кадров/сек (1536 SPF)
    Битовая глубина : 16 бит
    Метод сжатия : С потерями
    Размер потока : 122 Мбайт (16%)
    ServiceKind/String : Complete Main
    Default : Да
    Forced : Нет




_________________
Проголосуй за трекер Открытый торрент трекер - RUS-MEDIA.ORG

Проголосуй Открытый торрент трекер - RUS-MEDIA.ORG


Вернуться к началу
 Профиль Отправить личное сообщение  
 
   Похожие торренты   Автор   Торрент   Размер 
В этой теме нет новых непрочитанных сообщений. Смертельное оружие / Lethal Weapon / 1 сезон 1-18 серии из 18 [боевик, триллер, драма, криминал, 2016] WEB-DLRip, Mvo [LostFilm]

salma3

46 | 25

15.35 ГБ

В этой теме нет новых непрочитанных сообщений. Смертельное оружие / Lethal Weapon / 1 сезон 1-18 серии из 18 [Боевик, триллер, драма, криминал, 2016] WEB-DLRip-AVC, Mvo [LostFilm]

salma3

9 | 3

13.21 ГБ

В этой теме нет новых непрочитанных сообщений. Смертельное оружие / Lethal Weapon / 2 сезон 1-15 серии из 22 [боевик, триллер, драма, криминал, 2017] WEB-DL 1080p, Mvo [LostFilm]

salma3

0 | 0

46.76 ГБ

В этой теме нет новых непрочитанных сообщений. Смертельное оружие / Lethal Weapon / 2 сезон 1-22 серии из 22 [боевик, триллер, драма, криминал, 2017] WEBRip, Mvo [LostFilm]

salma3

5 | 4

11.82 ГБ

В этой теме нет новых непрочитанных сообщений. Смертельное оружие / Lethal Weapon / 2 сезон 1-22 серии из 22 [боевик, триллер, драма, 2017] WEB-DL 720p, Mvo [LostFilm]

salma3

0 | 0

39.24 ГБ

В этой теме нет новых непрочитанных сообщений. Смертельное оружие / Lethal Weapon / 2 сезон 1-22 серии из 22 [боевик, триллер, драма, 2017] WEB-DL 1080p, Mvo [LostFilm, Good People, Profix Media, OmskBird]

salma3

0 | 0

79.59 ГБ

В этой теме нет новых непрочитанных сообщений. Смертельное оружие / Lethal Weapon / 1 сезон 1-18 серии из 18 [боевик, триллер, драма, 2016] WEB-DL 720p, Mvo+Sub [LostFilm]

salma3

0 | 0

26.62 ГБ


Начать новую тему Ответить на тему  [ 1 сообщение ] 




Для Мосгорсуда, Роскомнадзора и рекламодателей:: mosgorsud-torrent[собачка]yandex.ru
cron