Торрент файл
скачать торрент магнет ссылка Добавлен: 03 сен 2017, 21:27
Размер: 39.88 ГБ
Сидеров: 2
Личеров: 13
Статус: (salma3)
Автор

СообщениеДобавлено: 03 сен 2017, 21:27 

Не в сети
Супермодератор
Аватара пользователя
Дата регистрации:
15 фев 2012, 16:44
Возраст: 28
Спасибо: 7223 / 2147
Сообщения: 67717
Год выхода: 2005-2006
Жанр: фантастика, фэнтези, триллер
Режиссер: Джек Бендер, Стивен Уильямс

В ролях: Мэттью Фокс, Эванджелин Лили, Нэвин Эндрюс, Терри О'Куинн, Доминик Монаган, Джош Холлоуэй, Мэгги Грэйс, Эмили де Рэйвин, Хорхе Гарсиа, Дэниел Дэй Ким, Ким Юн-чжин, Малкольм Дэвид Келли, Гарольд Перрино

О фильме:
Красавец-лайнер, совершающий полет из Сиднея в Лос-Анджелес, неожиданно терпит крушение. 48 пассажиров оказываются на пустынном острове посреди океана. Люди в панике.
Надежда быть найденными довольно призрачна. Поэтому остается только одно: собраться с силами и постараться выжить на острове, начиненном множеством опасностей...



Страна: США
Продолжительность: 24 x ~42 мин
Перевод: Профессиональный (полное дублирование)- "Первый канал"

Файл
Кодек: HEVC x265
Качество: BDRip-HEVC 1080p
Видео: 1920x1080 (16:9), ~5000 Кбит/сек, ~0.101 бит/(Пиксели*Кадры), 23,976 кадр/сек (24000/1001), HEVC (Main@L.4.1@High) 8 бит
Звук:
Русская, ААС, 443 Кбит/сек, Front: L C R, Side: L R, LFE, 48,0 КГц (серия 1-11)
Русская, ААС, 384 Кбит/сек, Front: L C R, Side: L R, LFE, 48,0 КГц (серия 12-24)
Субтитры: Русские (форсированные)

Семпл

Общее
Уникальный идентификатор : 184412776680829734575261904547142695136 (0x8ABC9BDF25ED7007BE19589A2EDBF8E0)
Полное имя : I:HEVC 2LOSTLost SE2LOST.S2.E01 Man of Science, Man of Faith.mkv
Формат : Matroska
Версия формата : Version 4 / Version 2
Размер файла : 1,65 Гбайт
Продолжительность : 43 м. 17 с.
Общий поток : 5444 Кбит/сек
Дата кодирования : UTC 2017-08-22 16:47:18
Программа кодирования : mkvmerge v9.7.1 ('Pandemonium') 64bit
Библиотека кодирования : libebml v1.3.4 + libmatroska v1.4.5
Обложка : Yes
Attachments : cover.png

Видео
Идентификатор : 1
Формат : HEVC
Формат/Информация : High Efficiency Video Coding
Профиль формата : Main@L4.1@High
Идентификатор кодека : V_MPEGH/ISO/HEVC
Продолжительность : 43 м. 17 с.
Битрейт : 4997 Кбит/сек
Ширина : 1920 пикселей
Высота : 1080 пикселей
Соотношение сторон : 16:9
Режим частоты кадров : Постоянный
Частота кадров : 23,976 (24000/1001) кадра/сек
Цветовое пространство : YUV
Субдискретизация насыщенности : 4:2:0
Битовая глубина : 8 бит
Бит/(Пиксели*Кадры) : 0.101
Размер потока : 1,51 Гбайт (92%)
Библиотека кодирования : x265 2.4+6-fd01abfc7898:[Windows][GCC 6.3.0][64 bit] 8bit+10bit+12bit
Настройки программы : cpuid=1173503 / frame-threads=3 / numa-pools=8 / wpp / no-pmode / no-pme / no-psnr / no-ssim / log-level=2 / input-csp=1 / input-res=1920x1080 / interlace=0 / total-frames=0 / level-idc=41 / high-tier=1 / uhd-bd=0 / ref=3 / no-allow-non-conformance / no-repeat-headers / annexb / no-aud / no-hrd / info / hash=0 / no-temporal-layers / open-gop / min-keyint=23 / keyint=240 / bframes=4 / b-adapt=0 / b-pyramid / bframe-bias=0 / rc-lookahead=15 / lookahead-slices=6 / scenecut=40 / no-intra-refresh / ctu=64 / min-cu-size=8 / no-rect / no-amp / max-tu-size=32 / tu-inter-depth=1 / tu-intra-depth=1 / limit-tu=0 / rdoq-level=0 / dynamic-rd=0.00 / no-ssim-rd / signhide / no-tskip / nr-intra=0 / nr-inter=0 / no-constrained-intra / strong-intra-smoothing / max-merge=2 / limit-refs=3 / no-limit-modes / me=1 / subme=2 / merange=57 / temporal-mvp / weightp / no-weightb / no-analyze-src-pics / deblock=0:0 / sao / no-sao-non-deblock / rd=2 / no-early-skip / rskip / fast-intra / no-tskip-fast / no-cu-lossless / no-b-intra / rdpenalty=0 / psy-rd=2.00 / psy-rdoq=0.00 / no-rd-refine / analysis-mode=0 / no-lossless / cbqpoffs=0 / crqpoffs=0 / rc=abr / bitrate=5000 / qcomp=0.60 / qpstep=4 / stats-write=0 / stats-read=2 / cplxblur=20.0 / qblur=0.5 / vbv-maxrate=50000 / vbv-bufsize=50000 / vbv-init=0.9 / ipratio=1.40 / pbratio=1.30 / aq-mode=1 / aq-strength=1.00 / cutree / zone-count=0 / no-strict-cbr / qg-size=32 / no-rc-grain / qpmax=69 / qpmin=0 / sar=0 / overscan=0 / videoformat=5 / range=0 / colorprim=2 / transfer=2 / colormatrix=1 / chromaloc=0 / display-window=0 / max-cll=0,0 / min-luma=0 / max-luma=255 / log2-max-poc-lsb=8 / vui-timing-info / vui-hrd-info / slices=1 / opt-qp-pps / opt-ref-list-length-pps / multi-pass-opt-rps / scenecut-bias=0.05 / no-opt-cu-delta-qp / no-aq-motion / no-hdr / no-hdr-opt / no-dhdr10-opt / refine-level=5 / no-limit-sao
Язык : English
Default : Да
Forced : Да
Цветовой диапазон : Limited
Коэффициенты матрицы : BT.709

Аудио
Идентификатор : 2
Формат : AAC
Формат/Информация : Advanced Audio Codec
Профиль формата : LC
Идентификатор кодека : A_AAC
Продолжительность : 43 м. 14 с.
Битрейт : 443 Кбит/сек
Каналы : 6 каналов
Расположение каналов : Front: L C R, Side: L R, LFE
Частота : 48,0 КГц
Частота кадров : 46,875 кадров/сек (1024 SPF)
Метод сжатия : С потерями
Задержка видео : 1 мс.
Размер потока : 137 Мбайт (8%)
Язык : Russian
Default : Да
Forced : Нет

Текст
Идентификатор : 3
Формат : ASS
Идентификатор кодека : S_TEXT/ASS
Идентификатор кодека/Информация : Advanced Sub Station Alpha
Продолжительность : 41 м. 28 с.
Битрейт : 0 бит/сек
ElementCount : 5
Метод сжатия : Без потерь
Размер потока : 286 байт (0%)
Заголовок : Форсированные
Язык : Russian
Default : Да
Forced : Да


Релиз от: от XuMuK


_________________
Проголосуй за трекер Открытый торрент трекер - RUS-MEDIA.ORG

Проголосуй Открытый торрент трекер - RUS-MEDIA.ORG


Вернуться к началу
 Профиль Отправить личное сообщение  
 
   Похожие торренты   Автор   Торрент   Размер 
В этой теме нет новых непрочитанных сообщений. Остаться в живых / Lost [S03] [фантастика, фэнтези, триллер, 2006] BDRip-HEVC 1080p, Dub [Первый канал]

salma3

6 | 22

36.2 ГБ

В этой теме нет новых непрочитанных сообщений. Остаться в живых / Lost [S04] [фантастика, фэнтези, триллер, 2007] BDRip-HEVC 1080p, Mvo [Первый канал]

salma3

3 | 14

21.85 ГБ

В этой теме нет новых непрочитанных сообщений. Остаться в живых / Lost [S01] [Фантастика, фэнтези, триллер, 2004] BDRip-HEVC 1080p, Dub [Первый канал]

salma3

2 | 1

40.8 ГБ

В этой теме нет новых непрочитанных сообщений. Остаться в живых / Lost [S01-06] [Фантастика, триллер, драма, 2004-2010] BDRip 720p HEVC, Dub

salma3

26 | 47

26.54 ГБ

В этой теме нет новых непрочитанных сообщений. Остаться в Живых / Lost [S01-06] [Фантастика, фэнтези, триллер, 2004-2010] Blu-Ray Remux 1080p, Dub

salma3

7 | 32

853.35 ГБ

В этой теме нет новых непрочитанных сообщений. Остаться в Живых / Lost [S01-06] (Джек Бендер, Дэниэл Эттиэс, Род Холкомб...) [Фантастика, фэнтези, триллер, драма, 2004-2010] BDRip-AVC, Dub [60 fps]

Dracon

19 | 136

227.21 ГБ

В этой теме нет новых непрочитанных сообщений. Остаться в живых / Fritt vilt [ужасы, триллер, 2006] BDRip 1080p, Dvo

salma3

26 | 16

8.36 ГБ


Начать новую тему Ответить на тему  [ 1 сообщение ] 




Для Мосгорсуда, Роскомнадзора и рекламодателей:: mosgorsud-torrent[собачка]yandex.ru
cron