Торрент файл
скачать торрент магнет ссылка Добавлен: 26 авг 2017, 11:25
Размер: 7.03 ГБ
Сидеров: 10
Личеров: 14
Статус: (salma3)
Автор

СообщениеДобавлено: 26 авг 2017, 11:25 

Не в сети
Супермодератор
Аватара пользователя
Дата регистрации:
15 фев 2012, 16:44
Возраст: 29
Спасибо: 7379 / 2147
Сообщения: 76077
Год выхода: 2017
Жанр: Ужасы, драма, триллер
Режиссер: Адам Бернштейн, Гай Ферленд

В ролях: Алисса Сазерленд, Исайя Уитлок мл., Билл Карр, Гас Бирни, Люк Косгров, Грег Ованессян, Дарси Линдсон, Александра Ордолис, Лола Флэнери и др.

О фильме:
Художник Дэвид Дрейтон живет в загородном доме в небольшом городке штата Мэн. После сильного шторма он вместе с сыном отправляется в местный супермаркет, где покупателей настигает жуткий туман.



Страна: США
Продолжительность: ~ 00:44:00 серия
Перевод: Любительский (многоголосый закадровый)[OmskBird]

Файл
Кодек: XviD
Качество: WEBRip
Видео: 720x400 (1.80:1), 23.976 fps, ~2165 kbps avg, 0.31 bit/pixel
Аудио rus: AC3, 48 kHz, 2 ch, 192 Kbps OmskBird

Реклама:присутствует

Семпл

Релиз: OmskBird
Перевод: Николай Исаков
Роли озвучивали: Павел Ярощик, Алексей Гнеушев, Марина Гассан
Звукорежиссер: Павел Квентов
Постер: Ксения Просветова
Монтаж и сведение звука: Юрий Гамов
Раздача с рекламными вставками
General
Complete name : G:FilmsThe.Mist.S01.400p.WEBRip.OmskBirdThe.Mist.S01E01.WEBRip.OmskBird.avi
Format : AVI
Format/Info : Audio Video Interleave
File size : 753 MiB
Duration : 44mn 30s
Overall bit rate : 2 367 Kbps
Writing application : VirtualDubMod 1.5.10.3 (build 2550/release)
Writing library : VirtualDubMod build 2550/release

Video
ID : 0
Format : MPEG-4 Visual
Format profile : Advanced Simple@L5
Format settings, BVOP : 1
Format settings, QPel : No
Format settings, GMC : No warppoints
Format settings, Matrix : Default (MPEG)
Codec ID : XVID
Codec ID/Hint : XviD
Duration : 44mn 30s
Bit rate : 2 165 Kbps
Width : 720 pixels
Height : 400 pixels
Display aspect ratio : 16:9
Frame rate : 23.976 (23976/1000) fps
Color space : YUV
Chroma subsampling : 4:2:0
Bit depth : 8 bits
Scan type : Progressive
Compression mode : Lossy
Bits/(Pixel*Frame) : 0.314
Stream size : 689 MiB (91%)
Writing library : XviD 73

Audio
ID : 1
Format : AC-3
Format/Info : Audio Coding 3
Mode extension : CM (complete main)
Format settings, Endianness : Big
Codec ID : 2000
Duration : 44mn 30s
Bit rate mode : Constant
Bit rate : 192 Kbps
Channel(s) : 2 channels
Channel positions : Front: L R
Sampling rate : 48.0 KHz
Frame rate : 31.250 fps (1536 spf)
Compression mode : Lossy
Stream size : 61.1 MiB (8%)
Alignment : Split accross interleaves
Interleave, duration : 42 ms (1.00 video frame)
Interleave, preload duration : 500 ms




Релиз от: OmskBird


_________________
Проголосуй за трекер Открытый торрент трекер - RUS-MEDIA.ORG

Проголосуй Открытый торрент трекер - RUS-MEDIA.ORG


Вернуться к началу
 Профиль Отправить личное сообщение  
 
   Похожие торренты   Автор   Торрент   Размер 
В этой теме нет новых непрочитанных сообщений. Мгла / The Mist [S01] [Ужасы, драма, триллер, 2017] WEBRip 720p, Mvo [OmskBird]

salma3

9 | 10

9.49 ГБ

В этой теме нет новых непрочитанных сообщений. Мгла / The Mist [S01] [Ужасы, драма, триллер, 2017] WEBRip, Mvo [AlexFilm]

salma3

49 | 55

5.19 ГБ

В этой теме нет новых непрочитанных сообщений. Мгла / The Mist [S01] [Ужасы, драма, триллер, 2017] WEB-DLRip, WEBRip, Mvo [NewStudio]

salma3

136 | 253

5.81 ГБ

В этой теме нет новых непрочитанных сообщений. Мгла / The Mist [S01] [Ужасы, драма, триллер, 2017] WEB-DLRip, WEBRip, Mvo [IdeaFilm]

salma3

439 | 685

4.85 ГБ

В этой теме нет новых непрочитанных сообщений. Мгла / The Mist [S01] [Ужасы, драма, триллер, 2017] WEBRip 1080p, Mvo [AlexFilm]

salma3

90 | 163

12.25 ГБ

В этой теме нет новых непрочитанных сообщений. Мгла / The Mist [S01] [Ужасы, драма, триллер, 2017] WEB-DLRip, WEBRip 720p, Mvo [IdeaFilm]

salma3

77 | 196

13.12 ГБ

В этой теме нет новых непрочитанных сообщений. Мгла / The Mist [S01] [Ужасы, драма, триллер, 2017] WEB-DLRip, WEBRip 1080p, Mvo [IdeaFilm]

salma3

63 | 145

16.57 ГБ


Начать новую тему Ответить на тему  [ 1 сообщение ] 




Для Мосгорсуда, Роскомнадзора и рекламодателей:: mosgorsud-torrent[собачка]yandex.ru
cron