Торрент файл
скачать торрент магнет ссылка Добавлен: 24 авг 2017, 15:10
Размер: 2.8 ГБ
Сидеров: 46
Личеров: 19
Статус: (salma3)
Автор

СообщениеДобавлено: 24 авг 2017, 15:10 

В сети
Супермодератор
Аватара пользователя
Дата регистрации:
15 фев 2012, 16:44
Возраст: 28
Спасибо: 7290 / 2147
Сообщения: 70815
Год выпуска: 2015
Жанр: мелодрама
Режиссер: Александр Итыгилов (младший)

В ролях: Олег Штефанко, Мария Куликова, Дария Боцманова, Вениамин Прибура, Максим Дрозд, Лариса Руснак, Константин Соловьёв, Екатерина Молоховская, Татьяна Юрикова, Дмитрий Сова, Алла Масленникова, Инна Мирошниченко, Виктория Булитко, Екатерина Кистень, Игорь Гнездилов, Галина Корнеева, Елена Бондарева-Репина

Описание:
Александра – учительница, Евгений – лётчик. Их случайная встреча вскоре переросла в глубокое чувство. У Александры есть сын Саша, а у Евгения – дочь Женя. Пара знакомит детей, и они прекрасно находят общий язык. Сашку не может не впечатлить мужественная профессия лётчика Евгения. А Женечка получает от Александры добро и нежность, в которых так нуждается. Всё шло отлично, пока не появилась мать Жени, бывшая жена лётчика. Как объяснить дочке, почему мать считалась мёртвой? И Евгений считает, что теперь у них с Александрой нет счастливого будущего...



Страна: Россия
Продолжительность: 4 х 00:43:00
Перевод: Не требуется

Формат: WEB-DLRip-AVC
Видео: 1024x576 (16:9), 25 fps, AVC MPEG-4 (x264), ~2000 kbps, 0.136 bit/pixel
Аудио: 48 kHz, AC3 Dolby Digital, 2/0 (L,R) ch, ~192.00 kbps avg

Общее
Формат : Matroska
Версия формата : Version 2
Размер файла : 692 Мбайт
Продолжительность : 44 м.
Общий поток : 2194 Кбит/сек
Дата кодирования : UTC 2015-09-28 12:16:34
Программа кодирования : mkvmerge v5.6.0 ('Kenya Kane') built on Jun 29 2012 15:01:44
Библиотека кодирования : libebml v1.2.3 + libmatroska v1.3.0

Видео
Идентификатор : 1
Формат : AVC
Формат/Информация : Advanced Video Codec
Профиль формата :
Параметр CABAC формата : Да
Параметр ReFrames формата : 9 кадров
Идентификатор кодека : V_MPEG4/ISO/AVC
Продолжительность : 44 м.
Битрейт : 2000 Кбит/сек
Ширина : 1024 пикселя
Высота : 576 пикселей
Соотношение сторон : 16:9
Режим частоты кадров : Постоянный
Частота кадров : 25,000 кадров/сек
Цветовое пространство : YUV
Субдискретизация насыщенности : 4:2:0
Битовая глубина : 8 бит
Тип развёртки : Прогрессивная
Бит/(Пиксели*Кадры) : 0.136
Размер потока : 618 Мбайт (89%)
Библиотека кодирования : x264 core 125 r2200 999b753
Настройки программы : cabac=1 / ref=9 / deblock=1:-2:-1 / analyse=0x3:0x133 / me=umh / subme=9 / psy=1 / psy_rd=1.00:0.15 / mixed_ref=1 / me_range=32 / chroma_me=1 / trellis=2 / 8x8dct=1 / cqm=0 / deadzone=21,11 / fast_pskip=0 / chroma_qp_offset=-3 / threads=3 / lookahead_threads=1 / sliced_threads=0 / nr=0 / decimate=1 / interlaced=0 / bluray_compat=0 / constrained_intra=0 / bframes=9 / b_pyramid=2 / b_adapt=2 / b_bias=0 / direct=1 / weightb=1 / open_gop=0 / weightp=2 / keyint=250 / keyint_min=25 / scenecut=40 / intra_refresh=0 / rc_lookahead=50 / rc=2pass / mbtree=1 / bitrate=2000 / ratetol=1.0 / qcomp=0.60 / qpmin=0 / qpmax=69 / qpstep=4 / cplxblur=20.0 / qblur=0.5 / ip_ratio=1.40 / aq=2:1.00
Default : Да
Forced : Нет
Цветовой диапазон : Limited
Основные цвета : BT.709
Характеристики трансфера : BT.709
Коэффициенты матрицы : BT.709

Аудио
Идентификатор : 2
Формат : AC-3
Формат/Информация : Audio Coding 3
Расширение режима : CM (complete main)
Параметр Endianness формата : Big
Идентификатор кодека : A_AC3
Продолжительность : 44 м.
Вид битрейта : Постоянный
Битрейт : 192 Кбит/сек
Каналы : 2 канала
Расположение каналов : Front: L R
Частота : 48,0 КГц
Метод сжатия : С потерями
Размер потока : 60,6 Мбайт (9%)
Default : Да
Forced : Нет




_________________
Проголосуй за трекер Открытый торрент трекер - RUS-MEDIA.ORG

Проголосуй Открытый торрент трекер - RUS-MEDIA.ORG


Вернуться к началу
 Профиль Отправить личное сообщение  
 
   Похожие торренты   Автор   Торрент   Размер 
В этой теме нет новых непрочитанных сообщений. Два плюс два / 2+2 (1-4 серии из 4) [мелодрама, 2015] WEB-DLRip

salma3

51 | 10

2.34 ГБ

В этой теме нет новых непрочитанных сообщений. Два плюс два [Серии 1-4 из 4] (Александр Итыгилов (младший)) [Мелодрама, 2015] SATRip

Dracon

19 | 1

2.42 ГБ

В этой теме нет новых непрочитанных сообщений. Переезд (1-4 серии из 4) [мелодрама, 2015] WEB-DLRip-AVC

salma3

58 | 15

5.47 ГБ

В этой теме нет новых непрочитанных сообщений. Вторая жизнь (1-4 серии из 4) [мелодрама, 2015] WEB-DLRip

salma3

50 | 8

2.16 ГБ

В этой теме нет новых непрочитанных сообщений. Неразрезанные страницы (1-4 серии из 4) [криминал, мелодрама, детектив, 2015] WEB-DLRip

salma3

28 | 9

2.15 ГБ

В этой теме нет новых непрочитанных сообщений. Неразрезанные страницы (1-4 серии из 4) [криминал, мелодрама, детектив, 2015] WEB-DLRip-AVC

salma3

42 | 12

2.22 ГБ

В этой теме нет новых непрочитанных сообщений. Два плюс два [01-04 из 04] (Александр Итыгилов (младший)) [Мелодрама, 2015] WEB-DL 720p

Dracon

321 | 26

2.29 ГБ


Начать новую тему Ответить на тему  [ 1 сообщение ] 




Для Мосгорсуда, Роскомнадзора и рекламодателей:: mosgorsud-torrent[собачка]yandex.ru
cron