Торрент файл
скачать торрент магнет ссылка Добавлен: 24 авг 2017, 15:02
Размер: 2.22 ГБ
Сидеров: 42
Личеров: 11
Статус: (salma3)
Автор

СообщениеДобавлено: 24 авг 2017, 15:02 

Не в сети
Супермодератор
Аватара пользователя
Дата регистрации:
15 фев 2012, 16:44
Возраст: 29
Спасибо: 7377 / 2147
Сообщения: 75888
Год выпуска: 2015
Жанр: криминал, мелодрама, детектив
Режиссер: Петр Амелин

В ролях: Павел Трубинер, Кристина Бабушкина, Наталья Высочанская, Олег Андреев, Ирина Соколова (II), Сергей Паршин, Максим Фомин, Ирина Полянская, Иван Ожогин, Владимир Колганов,

Описание:
Алекс Шан-Гирей считает, что должен снова вернуть себя и обрести свободу. И потому расстается с Маней Поливановой – женщиной всей своей жизни, а по совместительству автором популярных детективов. В его жизни никто не вправе занимать столько места. Он – Алекс Шан-Гирей – не выносит несвободы. А Маня Поливанова совершенно не выносит вранья и человеческих мучений. И если уж Алекс почему-то решил "освободиться" – Пожалуйста! Ей нужно спасать Владимира Берегового – главу IT-отдела издательства "ЛИАННА", который попадает в мистическую историю с исчезнувшим трупом. Труп испаряется из дома телеведущего Сергея Балашова, а оказывается в багажнике машины Берегового. Только это труп другого человека. Да и тот злосчастный дом, как выясняется, вовсе не Балашова…



Выпущено: Россия, продюсерский центр "Фабула"
Продолжительность: 4 x ~ 00:45:00
Перевод: Не требуется

Формат: WEB-DLRip-AVC
Видео: 1024x576 (16:9), 25.000 fps, MPEG4 AVC (х264) , ~ 1600 kbps avg, 0.109 bit/pixel
Аудио: 48 kHz, AC3, 2 ch, 192 kbps avg

Общее
Уникальный идентификатор : 233423276356508509632503951479628987055 (0xAF9BB01161475EF79572A3055E517AAF)
Полное имя : Nerazrezannye.stranicy.2015.WEB-DLRip.(AVC).\01.Nerazrezannye.stranicy.2015.WEB-DLRip.AVC.mkv
Формат : Matroska
Версия формата : Version 2
Размер файла : 567 Мбайт
Продолжительность : 44 м.
Общий поток : 1792 Кбит/сек
Дата кодирования : UTC 2015-12-08 19:39:48
Программа кодирования : mkvmerge v6.1.0 ('Old Devil') built on Mar 4 2013 09:10:42
Библиотека кодирования : libebml v1.3.0 + libmatroska v1.4.0

Видео
Идентификатор : 1
Формат : AVC
Формат/Информация : Advanced Video Codec
Профиль формата :
Параметр CABAC формата : Да
Параметр ReFrames формата : 9 кадров
Идентификатор кодека : V_MPEG4/ISO/AVC
Продолжительность : 44 м.
Битрейт : 1600 Кбит/сек
Ширина : 1024 пикселя
Высота : 576 пикселей
Соотношение сторон : 16:9
Режим частоты кадров : Постоянный
Частота кадров : 25,000 кадров/сек
Цветовое пространство : YUV
Субдискретизация насыщенности : 4:2:0
Битовая глубина : 8 бит
Тип развёртки : Прогрессивная
Бит/(Пиксели*Кадры) : 0.109
Размер потока : 495 Мбайт (87%)
Библиотека кодирования : x264 core 130 r2273 b3065e6
Настройки программы : cabac=1 / ref=9 / deblock=1:-2:-1 / analyse=0x3:0x133 / me=umh / subme=9 / psy=1 / psy_rd=1.00:0.15 / mixed_ref=1 / me_range=32 / chroma_me=1 / trellis=2 / 8x8dct=1 / cqm=0 / deadzone=21,11 / fast_pskip=0 / chroma_qp_offset=-3 / threads=3 / lookahead_threads=1 / sliced_threads=0 / nr=0 / decimate=1 / interlaced=0 / bluray_compat=0 / constrained_intra=0 / bframes=9 / b_pyramid=2 / b_adapt=2 / b_bias=0 / direct=1 / weightb=1 / open_gop=0 / weightp=2 / keyint=250 / keyint_min=25 / scenecut=40 / intra_refresh=0 / rc=2pass / mbtree=0 / bitrate=1600 / ratetol=1.0 / qcomp=0.60 / qpmin=0 / qpmax=69 / qpstep=4 / cplxblur=20.0 / qblur=0.5 / ip_ratio=1.40 / pb_ratio=1.30 / aq=2:1.00
Default : Да
Forced : Нет
Цветовой диапазон : Limited
Основные цвета : BT.709
Характеристики трансфера : BT.709
Коэффициенты матрицы : BT.709

Аудио
Идентификатор : 2
Формат : AC-3
Формат/Информация : Audio Coding 3
Расширение режима : CM (complete main)
Параметр Endianness формата : Big
Идентификатор кодека : A_AC3
Продолжительность : 44 м.
Вид битрейта : Постоянный
Битрейт : 192 Кбит/сек
Каналы : 2 канала
Расположение каналов : Front: L R
Частота : 44,1 КГц
Метод сжатия : С потерями
Размер потока : 60,7 Мбайт (11%)
Default : Да
Forced : Нет




_________________
Проголосуй за трекер Открытый торрент трекер - RUS-MEDIA.ORG

Проголосуй Открытый торрент трекер - RUS-MEDIA.ORG


Вернуться к началу
 Профиль Отправить личное сообщение  
 
   Похожие торренты   Автор   Торрент   Размер 
В этой теме нет новых непрочитанных сообщений. Неразрезанные страницы (1-4 серии из 4) [криминал, мелодрама, детектив, 2015] WEB-DLRip

salma3

28 | 9

2.15 ГБ

В этой теме нет новых непрочитанных сообщений. Граница времени (1-23 серии из 23) [детектив, криминал, фантастика, приключения, 2015] WEB-DLRip

salma3

163 | 67

13.08 ГБ

В этой теме нет новых непрочитанных сообщений. Закон каменных джунглей (1-8 серии из 8) [криминал, триллер, драма, детектив, 2015] WEB-DLRip

salma3

319 | 43

4.29 ГБ

В этой теме нет новых непрочитанных сообщений. Десять стрел для одной (1-4 серии из 4) [детектив, криминал, мелодрама, экранизация, 2018] WEB-DLRip-AVC

salma3

101 | 35

2.22 ГБ

В этой теме нет новых непрочитанных сообщений. Десять стрел для одной (1-4 серии из 4) [детектив, криминал, мелодрама, экранизация, 2018] WEB-DLRip

salma3

149 | 29

2.15 ГБ

В этой теме нет новых непрочитанных сообщений. Саша добрый, Саша злой (1-20 серии из 20) [детектив, криминал, 2015] WEB-DLRip

salma3

410 | 124

8.72 ГБ

В этой теме нет новых непрочитанных сообщений. Дядя Джон / Uncle John [Триллер, драма, мелодрама, криминал, детектив, 2015] WEB-DLRip, dvo

Dracon

266 | 7

1.37 ГБ


Начать новую тему Ответить на тему  [ 1 сообщение ] 




Для Мосгорсуда, Роскомнадзора и рекламодателей:: mosgorsud-torrent[собачка]yandex.ru
cron