Торрент файл
скачать торрент магнет ссылка Добавлен: 24 авг 2017, 13:27
Размер: 33.64 ГБ
Сидеров: 17
Личеров: 47
Статус: (salma3)
Автор

СообщениеДобавлено: 24 авг 2017, 13:27 

Не в сети
Супермодератор
Аватара пользователя
Дата регистрации:
15 фев 2012, 16:44
Возраст: 28
Спасибо: 6644 / 2146
Сообщения: 45909
Год выпуска: 2016
Жанр: детектив, драма, триллер
Режиссер: Максим Василенко

В ролях: Дарья Мороз, Павел Прилучный, Андрей Смоляков, Людмила Артемьева, Игорь Костолевский, Алёна Хмельницкая, Владимир Юматов, Павел Трубинер, Валерия Шкирандо, Никита Сологалов,

Описание:
Российская версия «Преступления» создается на основе формата “Forbrydelsen” датско-шведско-норвежского производства. На основе данного формата был произведен популярный американский проект “The Killing”. Расследование жестокого убийства молодой девушки оборачивается сложной психологической драмой, поднимает вопросы человеческих ценностей и смыслов, волнующих каждого: верность и предательство, цинизм и сострадание, месть и смирение. Детективная захватывающая интрига, в ходе развития которой подозрение падает на каждого из главных героев, держит зрителя в постоянном напряжении до последнего кадра. Но один из основных вопросов, который ставит фильм: удастся ли героям сохранить себя и остаться людьми?



Страна: Россия
Продолжительность: 20 x ~ 00:46:20
Перевод: Не требуется

Формат:WEB-DL 1080р
Видео: 1920x1080 (1.76:1), 25 fps, AVC ~5.118 Mbps avg, 0.099 bit/pixel
Аудио: 48 kHz, АС3, 2 ch, (Front: L R) ~192.00 kbps


Релиз 25Kuzmich

Общее
Уникальный идентификатор : 219166562022149986307981463740608711435 (0xA4E1F1C82CEF284DA3EDF496C9148B0B)
Полное имя : C:\Users\Michael\Downloads\Prestuplenie.2016.WEB-DL.1080.25Kuzmich\Prestuplenie.s01e01.WEB-DL.1080.25Kuzmich.mkv
Формат : Matroska
Версия формата : Version 4 / Version 2
Размер файла : 1,65 Гбайт
Продолжительность : 44 м. 28 с.
Режим общего битрейта : Переменный
Общий поток : 5312 Кбит/сек
Дата кодирования : UTC 2017-08-05 20:52:57
Программа кодирования : mkvmerge v9.4.0 ('Knurl') 32bit
Библиотека кодирования : libebml v1.3.4 + libmatroska v1.4.5

Видео
Идентификатор : 1
Формат : AVC
Формат/Информация : Advanced Video Codec
Профиль формата : High@L4
Параметр CABAC формата : Да
Параметр RefFrames формата : 4 кадра
Идентификатор кодека : V_MPEG4/ISO/AVC
Продолжительность : 44 м. 28 с.
Вид битрейта : Переменный
Битрейт : 5118 Кбит/сек
Максимальный битрейт : 40,0 Мбит/сек
Ширина : 1920 пикселей
Высота : 1080 пикселей
Соотношение сторон : 16:9
Режим частоты кадров : Постоянный
Частота кадров : 25,000 кадров/сек
Цветовое пространство : YUV
Субдискретизация насыщенности : 4:2:0
Битовая глубина : 8 бит
Тип развёртки : Прогрессивная
Бит/(Пиксели*Кадры) : 0.099
Размер потока : 1,59 Гбайт (96%)
Default : Да
Forced : Нет

Аудио
Идентификатор : 2
Формат : AC-3
Формат/Информация : Audio Coding 3
Параметр Endianness формата : Big
Идентификатор кодека : A_AC3
Продолжительность : 44 м. 28 с.
Вид битрейта : Постоянный
Битрейт : 192 Кбит/сек
Каналы : 2 канала
Расположение каналов : Front: L R
Частота : 48,0 КГц
Частота кадров : 31,250 кадров/сек (1536 SPF)
Битовая глубина : 16 бит
Метод сжатия : С потерями
Размер потока : 61,1 Мбайт (4%)
Язык : Russian
ServiceKind/String : Complete Main
Default : Да
Forced : Нет



_________________
Проголосуй за трекер Открытый торрент трекер - RUS-MEDIA.ORG

Проголосуй Открытый торрент трекер - RUS-MEDIA.ORG



реклама партнёра


Вернуться к началу
 Профиль Отправить личное сообщение  
 
   Похожие торренты   Автор   Торрент   Размер 
В этой теме нет новых непрочитанных сообщений. Преступление [01-20 из 20] [детектив, триллер, драма, 2016] WEB-DLRip-AVC

salma3

53 | 13

12.64 ГБ

В этой теме нет новых непрочитанных сообщений. Сверхъестественное / Supernatural (Сезон 11, Серия 1-18 из 23) ( Филип Сгриккиа, Роберт Сингер) 2015-2016 , Драма/Фэнтези/Ужасы/Детектив/Триллер , WEBDLRip 1080р] [MVO] [NewStudio & NovaFilm , LostFilm , BaibaKo , Jaskier, Englis] + [Sub

Враг Нароода

0 | 1

37.03 ГБ

В этой теме нет новых непрочитанных сообщений. Сверхъестественное / Supernatural (Сезон 11, Серия 1-13 из 23) ( Филип Сгриккиа, Роберт Сингер) 2015-2016 , Драма/Фэнтези/Ужасы/Детектив/Триллер , WEBDLRip 1080р] [MVO] [NewStudio & NovaFilm , LostFilm , BaibaKo , Jaskier] + [Subs Rus,EN

Враг Нароода

0 | 1

26.92 ГБ

В этой теме нет новых непрочитанных сообщений. Сверхъестественное / Supernatural (Сезон 11, Серия 1-15 из 23) ( Филип Сгриккиа, Роберт Сингер) 2015-2016 , Драма/Фэнтези/Ужасы/Детектив/Триллер , WEBDLRip 1080р] [MVO] [NewStudio & NovaFilm , LostFilm , BaibaKo , Jaskier] + [Subs Rus,EN

Враг Нароода

В этой теме нет новых непрочитанных сообщений. Обвиняемая / Вина / Guilt / 1 сезон 1-3 серии из 13 [триллер, драма, детектив, 2016] WEB-DLRip, Mvo [NewStudio]

salma3

19 | 12

1.59 ГБ

В этой теме нет новых непрочитанных сообщений. Охотники / Hunters / 1 сезон 1-13 серии из 13 [Фантастика, детектив, триллер, драма, 2016] WEB-DL 720p, Mvo [Кравец]

salma3

6 | 4

12.46 ГБ

В этой теме нет новых непрочитанных сообщений. Преступление [S01] [Драма, детектив, криминал, 2016] WEB-DLRip

salma3

967 | 1154

10.78 ГБ


Начать новую тему Ответить на тему  [ 1 сообщение ] 




Для Мосгорсуда, Роскомнадзора и рекламодателей:: mosgorsud-torrent[собачка]yandex.ru