Торрент файл
скачать торрент магнет ссылка Добавлен: 13 авг 2017, 11:35
Размер: 25.21 ГБ
Сидеров: 3
Личеров: 18
Статус: (salma3)
Автор

СообщениеДобавлено: 13 авг 2017, 11:35 

Не в сети
Супермодератор
Аватара пользователя
Дата регистрации:
15 фев 2012, 16:44
Возраст: 28
Спасибо: 7203 / 2147
Сообщения: 64881
Год выпуска:2015-2016
Режиссер: Марк Абер, Майкл Кэтлман, Майкл Цинберг
Жанр: драма, криминал, детектив

В ролях: Саша Александр, Энджи Хэрмон, Лоррейн Бракко, Брюс МакГилл, Дженнифер Холлэнд, Джэйсон Блэр, Том Бауэр, Джордан Бриджес, Мариса Рамирез, Кристал Рид

Описание:
Главная героиня сериала — Джейн Риццоли, бостонский детектив, которая вместе с патологоанатомом Морой Айлс, раскрывает преступления.



Страна: США
Продолжительность: 18 x ~00:43:00
Перевод: Профессиональный (многоголосый, закадровый)[NewStudio]

Формат: WEB-DL 720p
Видео: 1280x718 (1.78:1), 23,976 fps, AVC (х264), , ~3873 kbps avg, 0.176 bit/pixel
Аудио Rus/Eng: 48.0 kHz, AC3 Dolby Digital, 3/2 (L,C,R,l,r) + LFE ch, ~384 kbps avg

Общее
Уникальный идентификатор : 194085961181484585681904324653936827960 (0x920398B073FB920BA709E8ADF02C5E38)
Полное имя : D:киносериалыRizzoli.Isles.S06.WEB-DL.720p.NewStudioRizzoli.&.Isles.s06e01.WEBDL.720p.NewStudio.TV.mkv
Формат : Matroska
Версия формата : Version 2
Размер файла : 1,40 Гбайт
Продолжительность : 42 м. 14 с.
Общий поток : 4735 Кбит/сек
Дата кодирования : UTC 2015-06-21 14:41:44
Программа кодирования : mkvmerge v2.9.9 ('Tutu') built on Nov 25 2009 21:13:32
Библиотека кодирования : libebml v0.7.9 + libmatroska v0.8.1

Видео
Идентификатор : 1
Формат : AVC
Формат/Информация : Advanced Video Codec
Профиль формата :
Параметр CABAC формата : Нет
Параметр ReFrames формата : 2 кадра
Идентификатор кодека : V_MPEG4/ISO/AVC
Продолжительность : 42 м. 14 с.
Битрейт : 3873 Кбит/сек
Ширина : 1280 пикселей
Высота : 718 пикселей
Соотношение сторон : 16:9
Режим частоты кадров : Постоянный
Частота кадров : 23,976 кадра/сек
Цветовое пространство : YUV
Субдискретизация насыщенности : 4:2:0
Битовая глубина : 8 бит
Тип развёртки : Прогрессивная
Бит/(Пиксели*Кадры) : 0.176
Размер потока : 1,14 Гбайт (82%)
Язык : English
Default : Нет
Forced : Нет
Цветовой диапазон : Limited
Основные цвета : BT.709
Характеристики трансфера : BT.709
Коэффициенты матрицы : BT.709

Аудио #1
Идентификатор : 2
Формат : AC-3
Формат/Информация : Audio Coding 3
Параметр Endianness формата : Big
Идентификатор кодека : A_AC3
Продолжительность : 42 м. 14 с.
Вид битрейта : Постоянный
Битрейт : 384 Кбит/сек
Каналы : 6 каналов
Расположение каналов : Front: L C R, Side: L R, LFE
Частота : 48,0 КГц
Частота кадров : 31,250 кадров/сек (1536 spf)
Битовая глубина : 16 бит
Метод сжатия : С потерями
Размер потока : 116 Мбайт (8%)
Язык : Russian
ServiceKind/String : Complete Main
Default : Да
Forced : Да

Аудио #2
Идентификатор : 3
Формат : AC-3
Формат/Информация : Audio Coding 3
Параметр Endianness формата : Big
Идентификатор кодека : A_AC3
Продолжительность : 42 м. 14 с.
Вид битрейта : Постоянный
Битрейт : 384 Кбит/сек
Каналы : 6 каналов
Расположение каналов : Front: L C R, Side: L R, LFE
Частота : 48,0 КГц
Частота кадров : 31,250 кадров/сек (1536 spf)
Битовая глубина : 16 бит
Метод сжатия : С потерями
Размер потока : 116 Мбайт (8%)
Язык : English
ServiceKind/String : Complete Main
Default : Нет
Forced : Нет



Релиз:


_________________
Проголосуй за трекер Открытый торрент трекер - RUS-MEDIA.ORG

Проголосуй Открытый торрент трекер - RUS-MEDIA.ORG


Вернуться к началу
 Профиль Отправить личное сообщение  
 
   Похожие торренты   Автор   Торрент   Размер 
В этой теме нет новых непрочитанных сообщений. Риццоли и Айлз / Rizzoli & Isles / 7 сезон 1-13 серии из 13 [драма, криминал, детектив, 2016] WEB-DLRip, Mvo [NewStudio]

salma3

41 | 26

6.84 ГБ

В этой теме нет новых непрочитанных сообщений. Риццоли и Айлс / Rizzoli & Isles / 6 сезон 1-18 серии из 18 [Драма, детектив, 2015] WEB-DLRip, Mvo [NewStudio]

salma3

78 | 51

9.67 ГБ

В этой теме нет новых непрочитанных сообщений. Риццоли и Айлс / Rizzoli & Isles [S07] [Драма, детектив, криминал, 2016] WEB-DL 720p, Mvo [NewStudio]

salma3

0 | 2

18.4 ГБ

В этой теме нет новых непрочитанных сообщений. Риццоли и Айлс / Rizzoli & Isles [S07] [Драма, детектив, криминал, 2016] WEB-DL 1080p, Mvo [NewStudio]

salma3

1 | 2

22.6 ГБ

В этой теме нет новых непрочитанных сообщений. Риццоли и Айлс / Rizzoli & Isles [S01-07] [Драма, детектив, криминал, 2010-2016] WEB-DLRip, Mvo [NewStudio]

salma3

6 | 39

53.06 ГБ

В этой теме нет новых непрочитанных сообщений. Риццоли и Айлс / Rizzoli & Isles [07x01-09] [Драма, детектив, 2016] WEB-DLRip, Mvo [NewStudio]

salma3

74 | 37

4.73 ГБ

В этой теме нет новых непрочитанных сообщений. База Куантико / Quantico / 2 сезон 1-22 серии из 22 [триллер, драма, криминал, детектив, 2016] WEB-DL 720p, Mvo [NewStudio]

salma3

11 | 28

32.71 ГБ


Начать новую тему Ответить на тему  [ 1 сообщение ] 




Для Мосгорсуда, Роскомнадзора и рекламодателей:: mosgorsud-torrent[собачка]yandex.ru
cron