Торрент файл
скачать торрент магнет ссылка Добавлен: 11 авг 2017, 12:02
Размер: 15.17 ГБ
Сидеров: 5
Личеров: 7
Статус: (salma3)
Автор

СообщениеДобавлено: 11 авг 2017, 12:02 

Не в сети
Супермодератор
Аватара пользователя
Дата регистрации:
15 фев 2012, 16:44
Возраст: 28
Спасибо: 7290 / 2147
Сообщения: 70618
Год выпуска: 2016-2017
Жанр: комедия
Режиссер: Джейсон Уайнер, Майкл Спиллер, Крис Кох

В ролях: Эд О’Нил, Джули Боуэн, Ти Баррелл, София Вергара, Джесси Тайлер Фергюсон, Эрик Стоунстрит, Сара Хайланд, Нолан Гоулд, Эриель Винтер, Рико Родригез

Описание:
Джей Притчетт познакомился со сногсшибательной колумбийкой Глорией, когда она в бикини подавала ему коктейли на вечеринке, которую он устроил в день ухода егo первой жены. Теперь Джей и Глория женаты, и Джей изо всех сил старается не отставать от молодой красотки-жены и ее сына-подростка. В семье Клэр Дельгадо тоже не все гладко. Ее муж Фил — просто замечательный, но он считает, что «свой в доску» для своих детей, чем их сильно смущает. Митчелл Данфи и его партнер Камерон только что удочерили Лили, очаровательного младенца из Вьетнама.



Страна: США
Продолжительность: 22 х 00:22:00
Перевод: Профессиональный (полное дублирование) [Paramount Comedy]

Формат: WEB-DL 720p
Видео: 1280x720 (1.77:1), 25 fps, AVC (х264), , ~4000 kbps avg, 0.172 bit/pixel
Аудио Rus: 48.0 kHz, AC3 Dolby Digital, 2/0 (L,R) ch, ~192 kbps avg
Аудио Eng: 48.0 kHz, AC3 Dolby Digital, 3/2 (L,C,R,l,r) + LFE ch, ~384 kbps avg

Общее
Уникальный идентификатор : 250373206765930015245783994828657739071 (0xBC5C202884F3D7D88CBF72A17BF7453F)
Полное имя : D:киносериалыModern Family Seasons 7 720p Paramount ComedyModern.Family.S07E01.Summe.Lovin.720p.WEB-DL.Paramount.Comedy.mkv
Формат : Matroska
Версия формата : Version 4 / Version 2
Размер файла : 687 Мбайт
Продолжительность : 20 м. 43 с.
Общий поток : 4636 Кбит/сек
Дата кодирования : UTC 2016-04-03 05:00:30
Программа кодирования : mkvmerge v8.9.0 ('Father Daughter') 64bit
Библиотека кодирования : libebml v1.3.3 + libmatroska v1.4.4

Видео
Идентификатор : 1
Формат : AVC
Формат/Информация : Advanced Video Codec
Профиль формата :
Параметр CABAC формата : Нет
Параметр ReFrames формата : 2 кадра
Идентификатор кодека : V_MPEG4/ISO/AVC
Продолжительность : 20 м. 43 с.
Битрейт : 3968 Кбит/сек
Ширина : 1280 пикселей
Высота : 720 пикселей
Соотношение сторон : 16:9
Режим частоты кадров : Постоянный
Частота кадров : 25,000 кадров/сек
Цветовое пространство : YUV
Субдискретизация насыщенности : 4:2:0
Битовая глубина : 8 бит
Тип развёртки : Прогрессивная
Бит/(Пиксели*Кадры) : 0.172
Размер потока : 588 Мбайт (86%)
Язык : English
Default : Да
Forced : Нет
Цветовой диапазон : Limited
Основные цвета : BT.709
Характеристики трансфера : BT.709
Коэффициенты матрицы : BT.709

Аудио #1
Идентификатор : 2
Формат : AC-3
Формат/Информация : Audio Coding 3
Параметр Endianness формата : Big
Идентификатор кодека : A_AC3
Продолжительность : 20 м. 43 с.
Вид битрейта : Постоянный
Битрейт : 192 Кбит/сек
Каналы : 2 канала
Расположение каналов : Front: L R
Частота : 48,0 КГц
Частота кадров : 31,250 кадров/сек (1536 spf)
Битовая глубина : 16 бит
Метод сжатия : С потерями
Размер потока : 28,5 Мбайт (4%)
Язык : Russian
ServiceKind/String : Complete Main
Default : Да
Forced : Нет

Аудио #2
Идентификатор : 3
Формат : AC-3
Формат/Информация : Audio Coding 3
Параметр Endianness формата : Big
Идентификатор кодека : A_AC3
Продолжительность : 20 м. 43 с.
Вид битрейта : Постоянный
Битрейт : 384 Кбит/сек
Каналы : 6 каналов
Расположение каналов : Front: L C R, Side: L R, LFE
Частота : 48,0 КГц
Частота кадров : 31,250 кадров/сек (1536 spf)
Битовая глубина : 16 бит
Метод сжатия : С потерями
Размер потока : 56,9 Мбайт (8%)
Язык : English
ServiceKind/String : Complete Main
Default : Нет
Forced : Нет


Релиз:


_________________
Проголосуй за трекер Открытый торрент трекер - RUS-MEDIA.ORG

Проголосуй Открытый торрент трекер - RUS-MEDIA.ORG


Вернуться к началу
 Профиль Отправить личное сообщение  
 
   Похожие торренты   Автор   Торрент   Размер 
В этой теме нет новых непрочитанных сообщений. Американская семейка / Modern Family / 8 сезон 1-22 серии из 22 [комедия, 2016-2017] WEB-DLRip, Mvo [LostFilm]

salma3

13 | 14

6.97 ГБ

В этой теме нет новых непрочитанных сообщений. Американская семейка / Modern Family [S08] [комедия, ситком, 2016] WEB-DLRip 720p, Mvo [LostFilm]

salma3

1 | 6

15.08 ГБ

В этой теме нет новых непрочитанных сообщений. Американская семейка / Modern Family [08x01-09 из 24] (Комедия, ситком, 2016) HDTV 720p | IdeaFilm

marya111

21 | 43

6.31 ГБ

В этой теме нет новых непрочитанных сообщений. Американская семейка / Modern Family [08x01-05 из 24] (Комедия, ситком, 2016) HDTV 720p | IdeaFilm

marya111

0 | 0

3.45 ГБ

В этой теме нет новых непрочитанных сообщений. Американская семейка / Modern Family [08x01-06 из 24] (Комедия, ситком, 2016) HDTV 720p | IdeaFilm

marya111

0 | 0

4.17 ГБ

В этой теме нет новых непрочитанных сообщений. Американская семейка / Modern Family [07x01-06 из 24] (Майкл Спиллер, Джейсон Уайнер, Гэйл Манкусо) [2015, Комедия, WEB-DL 720p | LostFilm]

Dracon

56 | 82

4.32 ГБ

В этой теме нет новых непрочитанных сообщений. Американская семейка / Modern Family [08x01-08 из 24] (2016) HDTV 720p | IdeaFilm

marya111

27 | 47

5.61 ГБ


Начать новую тему Ответить на тему  [ 1 сообщение ] 




Для Мосгорсуда, Роскомнадзора и рекламодателей:: mosgorsud-torrent[собачка]yandex.ru
cron