Торрент файл
скачать торрент магнет ссылка Добавлен: 26 июл 2017, 20:58
Размер: 15.54 ГБ
Сидеров: 25
Личеров: 37
Статус: (salma3)
Автор

СообщениеДобавлено: 26 июл 2017, 20:58 

Не в сети
Супермодератор
Аватара пользователя
Дата регистрации:
15 фев 2012, 16:44
Возраст: 28
Спасибо: 6640 / 2146
Сообщения: 45613
Год выпуска: 2015
Жанр: драма, боевик, экшен
Режиссер: Майкл Дж. Бассет, Джулиан Холмс

В ролях: Филип Уинчестер, Салливан Степлтон, Рона Митра, Мишель Лукес, Робсон Грин, Дугрей Скотт, Мартин Клунес

Описание:
В сериале речь идет о нелегкой службе британских военных, которые вынуждены отправляться не куда им захочется, а куда прикажет вышестоящее начальство. При этом им приходится выносить постоянное физическое напряжение, ведь как бы им этого не хотелось, они являются чужими в тех странах, где выполняют боевые операции. А значит помимо постоянного ожидания пули из-за угла, им нужно сносить порой открытую враждебность людей.




Страна: Великобритания
Продолжительность: 10 х 00:44:00
Перевод: Профессиональный (многоголосый, закадровый) [BaibaKo]

Формат: HDTVRip 720р
Видео: 1280 x 720 (16:9), 23.976 fps, MPEG-4 AVC, ~4 528 kbps avg, 0.197 bit/pixel
Аудио Rus: 48 kHz, AC3 Dolby Digital, 3/2 (L,C,R,l,r) + LFE ch, ~384.00 kbps avg
Аудио Eng: 48 kHz, AC3 Dolby Digital, 3/2 (L,C,R,l,r) + LFE ch, ~384.00 kbps avg

General
Unique ID : 208423220445532269747459819165137899654 (0x9CCCDA25988A1AC3A29E39C369E21086)
Complete name : E:ЗагруженныеStrike.Back.s05.HDTV720p.BaibaKo.tvStrike.Back.s05e01.HDTV720p.Rus.Eng.BaibaKo.tv.mkv
Format : Matroska
Format version : Version 4 / Version 2
File size : 1.69 GiB
Duration : 44mn 48s
Overall bit rate : 5 396 Kbps
Encoded date : UTC 2015-06-06 01:04:37
Writing application : mkvmerge v7.9.0 ('Birds') 64bit
Writing library : libebml v1.3.1 + libmatroska v1.4.2
DURATION : 00:44:48.896000000
NUMBER_OF_FRAMES : 84028
NUMBER_OF_BYTES : 129067008
_STATISTICS_WRITING_APP : mkvmerge v7.9.0 ('Birds') 64bit
_STATISTICS_WRITING_DATE_UT : 2015-06-06 01:04:37
_STATISTICS_TAGS : BPS DURATION NUMBER_OF_FRAMES NUMBER_OF_BYTES

Video
ID : 1
Format : AVC
Format/Info : Advanced Video Codec
Format profile :
Format settings, CABAC : Yes
Format settings, ReFrames : 5 frames
Codec ID : V_MPEG4/ISO/AVC
Duration : 44mn 48s
Bit rate : 4 528 Kbps
Width : 1 280 pixels
Height : 720 pixels
Display aspect ratio : 16:9
Frame rate mode : Constant
Frame rate : 25.000 fps
Color space : YUV
Chroma subsampling : 4:2:0
Bit depth : 8 bits
Scan type : Progressive
Bits/(Pixel*Frame) : 0.197
Stream size : 1.41 GiB (84%)
Writing library : x264 core 142 r2479 dd79a61
Encoding settings : cabac=1 / ref=5 / deblock=1:0:0 / analyse=0x3:0x113 / me=umh / subme=8 / psy=1 / psy_rd=1.00:0.00 / mixed_ref=1 / me_range=16 / chroma_me=1 / trellis=1 / 8x8dct=1 / cqm=0 / deadzone=21,11 / fast_pskip=1 / chroma_qp_offset=-2 / threads=12 / lookahead_threads=2 / sliced_threads=0 / nr=0 / decimate=1 / interlaced=0 / bluray_compat=0 / constrained_intra=0 / bframes=3 / b_pyramid=2 / b_adapt=2 / b_bias=0 / direct=3 / weightb=1 / open_gop=0 / weightp=2 / keyint=250 / keyint_min=25 / scenecut=40 / intra_refresh=0 / rc_lookahead=50 / rc=2pass / mbtree=1 / bitrate=4528 / ratetol=1.0 / qcomp=0.60 / qpmin=0 / qpmax=69 / qpstep=4 / cplxblur=20.0 / qblur=0.5 / vbv_maxrate=62500 / vbv_bufsize=78125 / nal_hrd=none / filler=0 / ip_ratio=1.40 / aq=1:1.00
Default : No
Forced : No
Color primaries : BT.709
Transfer characteristics : BT.709
Matrix coefficients : BT.709
Color range : Limited

Audio #1
ID : 2
Format : AC-3
Format/Info : Audio Coding 3
Mode extension : CM (complete main)
Format settings, Endianness : Big
Codec ID : A_AC3
Duration : 44mn 48s
Bit rate mode : Constant
Bit rate : 384 Kbps
Channel(s) : 6 channels
Channel positions : Front: L C R, Side: L R, LFE
Sampling rate : 48.0 KHz
Bit depth : 16 bits
Compression mode : Lossy
Stream size : 123 MiB (7%)
Language : Russian
Default : Yes
Forced : No

Audio #2
ID : 3
Format : AC-3
Format/Info : Audio Coding 3
Mode extension : CM (complete main)
Format settings, Endianness : Big
Codec ID : A_AC3
Duration : 44mn 48s
Bit rate mode : Constant
Bit rate : 384 Kbps
Channel(s) : 6 channels
Channel positions : Front: L C R, Side: L R, LFE
Sampling rate : 48.0 KHz
Bit depth : 16 bits
Compression mode : Lossy
Stream size : 123 MiB (7%)
Language : English
Default : No
Forced : No



_________________
Проголосуй за трекер Открытый торрент трекер - RUS-MEDIA.ORG

Проголосуй Открытый торрент трекер - RUS-MEDIA.ORG



реклама партнёра


Вернуться к началу
 Профиль Отправить личное сообщение  
 
   Похожие торренты   Автор   Торрент   Размер 
В этой теме нет новых непрочитанных сообщений. Ответный удар / Strike Back [S05] (Майкл Дж. Бассет, Джулиан Холмс) [2015, Боевик, триллер, драма, HDTVRip 1080p | Novamedia]

Nickolas3435

29 | 18

16.75 ГБ

В этой теме нет новых непрочитанных сообщений. Ответный удар / Strike Back [06x03 из 10] [Боевик, триллер, драма, 2017] HDTVRip, Mvo [IdeaFilm]

salma3

0 | 0

1.62 ГБ

В этой теме нет новых непрочитанных сообщений. Джей и Молчаливый Боб наносят ответный удар / Jay and Silent Bob Strike Back (комедия. 2001) BDRip 1080p Dub+Mvo+Avo+Sub

Aleksandr.ru

67 | 2

9.92 ГБ

В этой теме нет новых непрочитанных сообщений. Стрела / Arrow / 4 сезон 1-23 серии из 23 [фантастика, фэнтези, боевик, драма, приключения, 2015-2016] WEB-DLRip, Mvo [BaibaKo]

salma3

72 | 198

12.92 ГБ

В этой теме нет новых непрочитанных сообщений. Скорпион / Scorpion / 2 сезон 1-24 серии из 24 (Гэри Фледер, Дуайт Х. Литтл, Бобби Рот) [2015, триллер, драма, боевик, WEB-DLRip | BaibaKo]

Nickolas3435

109 | 75

11.97 ГБ

В этой теме нет новых непрочитанных сообщений. Сокрушительный удар / Strike One [боевик, драма, криминал, 2014] WEBDLRip, Mvo

salma3

12 | 3

1.37 ГБ

В этой теме нет новых непрочитанных сообщений. Первый удар / First Strike [Боевик, триллер, драма, 1996] HDRip, Mvo [HTB]

salma3

14 | 3

1.37 ГБ


Начать новую тему Ответить на тему  [ 1 сообщение ] 




Для Мосгорсуда, Роскомнадзора и рекламодателей:: mosgorsud-torrent[собачка]yandex.ru