Торрент файл
скачать торрент магнет ссылка Добавлен: 03 июл 2017, 11:14
Размер: 3.41 ГБ
Сидеров: 125
Личеров: 20
Статус: (salma3)
Автор

СообщениеДобавлено: 03 июл 2017, 11:14 

Не в сети
Супермодератор
Аватара пользователя
Дата регистрации:
15 фев 2012, 16:44
Возраст: 28
Спасибо: 7207 / 2147
Сообщения: 65665
Формат: WEB-DL 720p, MKV, H.264, AC3
Режиссер: Андрей Либенсон, Виктор Татарский
Жанр: мелодрама
Продолжительность: 4 х ~ 00:45:00
Год выпуска: 2016

В ролях: Ольга Сутулова, Никита Зверев, Евгения Осипова, Александр Большаков, Екатерина Проскурина, Андрей Терентьев, Светлана Письмиченко, Стефан Отто, Никита Морозов, Данила Воропаев, Валерий Кухарешин, Елена Карпова, Алексей Фалилеев, Олег Малышев, Владимир Маслаков, Ольга Калмыкова

Описание: Любе Донской (Ольга Сутулова) пришлось выйти замуж за нелюбимого человека (Андрей Терентьев), после того как ее, беременную, бросил парень. Семейная жизнь не задалась. Муж потерял работу и начал пить. Когда по его вине чуть не погибли мать Любы и ее маленький сын, героиня решила, что пора что-то менять...



Видео: 1280x720 (16:9), 25 fps, AVC MPEG-4 (x264), ~ 2430 kbps , 0.105 bit/pixel
Аудио: 48 kHz, AC3, 2/0 (L,R) ch, ~192 kbps

Общее
Уникальный идентификатор : 277629756646433605428967465692372719682 (0xD0DD8BD24F70F4C634E0DD2C9A90D842)
Полное имя : C:Любовь говорит.2014.WEB-DL (720p).1.Любовь говорит.2014.WEB-DL (720p).mkv
Формат : Matroska
Размер файла : 856 Мбайт
Продолжительность : 44 м.
Общий поток : 2675 Кбит/сек
Программа кодирования : Lavf56.36.100
Библиотека кодирования : Lavf56.36.100

Видео
Идентификатор : 1
Формат : AVC
Формат/Информация : Advanced Video Codec
Профиль формата :
Параметр CABAC формата : Да
Параметр ReFrames формата : 3 кадра
Идентификатор кодека : V_MPEG4/ISO/AVC
Продолжительность : 44 м.
Вид битрейта : Переменный
Битрейт : 2430 Кбит/сек
Максимальный битрейт : 4000 Кбит/сек
Ширина : 1280 пикс.
Высота : 720 пикс.
Соотношение сторон : 16:9
Частота кадров : 25,000 кадр/сек
Стандарт вещания : PAL
Цветовое пространство : YUV
Подвыборка цветности : 4:2:0
Битовая глубина : 8 бит
Тип развёртки : Прогрессивная
Бит/(Пиксели*Кадры) : 0.105
Размер потока : 777 Мбайт (91%)
Язык : English

Аудио
Идентификатор : 2
Формат : AC-3
Формат/Информация : Audio Coding 3
Расширение режима : CM (complete main)
Идентификатор кодека : A_AC3
Продолжительность : 44 м.
Вид битрейта : Постоянный
Битрейт : 192 Кбит/сек
Каналы : 2 канала
Расположение каналов : Front: L R
Частота : 44,1 КГц
Битовая глубина : 16 бит
Метод сжатия : С потерями
Задержка видео : 1 м. 5 с.
Размер потока : 61,4 Мбайт (7%)
Язык : English / un




_________________
Проголосуй за трекер Открытый торрент трекер - RUS-MEDIA.ORG

Проголосуй Открытый торрент трекер - RUS-MEDIA.ORG


Вернуться к началу
 Профиль Отправить личное сообщение  
 
   Похожие торренты   Автор   Торрент   Размер 
В этой теме нет новых непрочитанных сообщений. Судьба по имени любовь (1-4 серии из 4) [мелодрама, 2016] WEB-DLRip

salma3

1293 | 381

2.13 ГБ

В этой теме нет новых непрочитанных сообщений. Спасенная любовь [01-04 из 04] [Мелодрама, 2016] HDTVRip 720p

Dracon

146 | 34

7.39 ГБ

В этой теме нет новых непрочитанных сообщений. Летняя любовь / Summer Love [мелодрама, 2016] HDTVRip 720p, Mvo

salma3

114 | 16

2.81 ГБ

В этой теме нет новых непрочитанных сообщений. Чистая любовь / Sunjeong [драма, мелодрама, 2016] WEBRip 720p, Dvo

salma3

18 | 3

1.76 ГБ

В этой теме нет новых непрочитанных сообщений. Фантастическая любовь и где ее найти / This Beautiful Fantastic [Фэнтези, драма, мелодрама, 2016] WEB-DL 720p, Mvo [iTunes]

salma3

3267 | 1621

2.84 ГБ

В этой теме нет новых непрочитанных сообщений. Три дороги (1-4 серии из 4) [мелодрама, 2016] WEB-DL 720p

salma3

541 | 341

3.77 ГБ

В этой теме нет новых непрочитанных сообщений. Второй брак (1-4 серии из 4) [мелодрама, 2016] WEB-DL 720p

salma3

470 | 128

3.45 ГБ


Начать новую тему Ответить на тему  [ 1 сообщение ] 




Для Мосгорсуда, Роскомнадзора и рекламодателей:: mosgorsud-torrent[собачка]yandex.ru
cron