Торрент файл
скачать торрент магнет ссылка Добавлен: 26 июн 2017, 00:38
Размер: 39.98 ГБ
Сидеров: 2
Личеров: 1
Автор

СообщениеДобавлено: 29 май 2017, 15:28 

Не в сети
Аватара пользователя
Дата регистрации:
09 авг 2014, 12:07
Спасибо: 63 / 1
Сообщения: 231
Откуда: КРАСНОГОРСК
Американские боги / American Gods Серия 1- 8 из 8



Год выпуска: 2017
Выпущено: США, Fremantle Media North America
Жанр: Фэнтези, детектив
Продолжительность: 01:03:00
Сезон:1
Серия:1- 8
Количество серий в сезоне: 8

Озвучка1: Дублированный - Нота -Русский

Озвучка2: Профессиональный многоголосый - LostFilm -Русский

Озвучка3: Профессиональный многоголосый - Jaskier -Русский

Озвучка4: Профессиональный многоголосый - AlexFilm -Русский

Озвучка5: Профессиональный многоголосый - NewStudiо -Русский

Озвучка 6: Профессиональный Двухголосый -Kubik V Kube-Русский

Озвучка 7: Профессиональный многоголосый - Английский - Оригинал

Субтитры: : Russian (forced), Russian, English, English SDH




Режиссеры:
Дэвид Слэйд, Адам Кэйн, Винченцо Натали

Актеры:
Рики Уиттл, Иэн МакШейн, Эмили Браунинг, Пабло Шрайбер, Брюс Лэнгли, Джонатан Такер, Джиллиан Андерсон, Клорис Личмен



Тень — человек с прошлым. Но теперь единственное, чего он хочет — это жить тихой и спокойной жизнью со своей женой в стороне от проблем. Пока он не узнает о ее гибели в результате несчастного случая. По пути на похороны домой, когда сильнейший шторм сотрясает самолет, ему представляется странный человек с соседнего кресла. Он называет себя мистер Среда. И он знает о Тени больше, чем кажется возможным. Он предупреждает Тень, что грядет ещё больший шторм. И ничто с этого момента, включая его самого, не будет таким, как прежде.




Качество :WEB-DLRip 1080p
Формат: MKV
Видео кодек: H265 HEVC
Видео: 8894Kбит/сек,1920х1080(16.9),в 23.976кадр/сек, HEVC

Аудио Кодек:AC3

Аудио #1:AC3 , 640 Kbps, 48.0 KHz, 6 ch- Дублированный - Нота -Русский

Аудио #2:AC3 ,384 Kbps, 48.0 KHz, 6 ch- LostFilm -Русский

Аудио #3:AC3 , 384 Kbps, 48.0 KHz, 6 ch- Jaskier -Русский

Аудио #4:AC3 , 384 Kbps, 48.0 KHz, 6 ch- AlexFilm -Русский

Аудио #5:AC3 , 384 Kbps, 48.0 KHz, 6 ch- NewStudiо -Русский

Аудио #6:AC3 , 384 Kbps, 48.0 KHz, 6 ch- Kubik V Kube -Русский

Аудио #7: AC3, 640 Kbps, 48.0 KHz,6 ch - - English - Оригинал

ВНИМАНИЕ! В сериале присутствует ненормативная лексика.

Звуковая дорожка сделана путем наложения чистого голоса озвучивателей на центральный канал оригинальной дорожки. Качество идентично звуковой дорожке.



1 сезон 1 серия Сад костей - The Bone Orchard
1 сезон 2 серия Тайна ложек - The Secret of Spoons
1 сезон 3 серия Голова, полная снега - Head Full of Snow
1 сезон 4 серия С глаз долой - Git Gone
1 сезон 5 серия Новая модель со свежим ароматом цитруса - Lemon Scented You
1 сезон 6 серия Табун богов - A Murder of Gods
1 сезон 7 серия О безумном Суини замолвите слово - A Prayer for Mad Sweeney
1 сезон 8 серия В гостях у Иисусов - Come to Jesus




Общее
Уникальный идентификатор : 174471595803785868695797221210973492832 (0x834201D0049FD905B2FFB8891F775660)
Полное имя : C:\ХОББИ\ПИРАТИЯ(PIRATIYA)\АМЕРИКАНСКИЕ БОГИ\American_Gods_2017_S01_[DUB _Nota_LostFilm_AlexFilm_NewStudiо_Jaskier]_HEVC_DD5.1_N.B_WEB-DL_1800p_5xRus_Eng\American_Gods_S01E01_HEVC_DD5.1_N.B_WEB-DL_1800p_5xRus_Eng.mkv
Формат : Matroska
Версия формата : Version 4 / Version 2
Размер файла : 5,18 Гбайт
Продолжительность : 1 ч. 2 м.
Общий поток : 11,8 Мбит/сек
Название фильма : American_Gods_S01E01_HEVC_DD5.1_N.B_WEB-DL_1800p_5xRus_Eng
Дата кодирования : UTC 2017-05-23 19:43:43
Программа кодирования : mkvmerge v12.0.0 ('Trust / Lust') 64bit
Библиотека кодирования : libebml v1.3.4 + libmatroska v1.4.5
Обложка : Yes
Attachments : cover.jpg

Видео
Идентификатор : 1
Формат : HEVC
Формат/Информация : High Efficiency Video Coding
Идентификатор кодека : V_MPEGH/ISO/HEVC
Продолжительность : 1 ч. 2 м.
Битрейт : 8994 Кбит/сек
Ширина : 1920 пикселей
Высота : 1080 пикселей
Соотношение сторон : 16:9
Режим частоты кадров : Постоянный
Частота кадров : 23,976 (24000/1001) кадра/сек
Бит/(Пиксели*Кадры) : 0.181
Размер потока : 3,95 Гбайт (76%)
Заголовок : American_Gods_S01E01_HEVC_DD5.1_N.B_WEB-DL_1800p_5xRus_Eng
Язык : Russian
Default : Да
Forced : Нет

Аудио #1
Идентификатор : 6
Формат : AC-3
Формат/Информация : Audio Coding 3
Параметр Endianness формата : Big
Идентификатор кодека : A_AC3
Продолжительность : 1 ч. 2 м.
Вид битрейта : Постоянный
Битрейт : 640 Кбит/сек
Каналы : 6 каналов
Расположение каналов : Front: L C R, Side: L R, LFE
Частота : 48,0 КГц
Частота кадров : 31,250 кадров/сек (1536 spf)
Битовая глубина : 16 бит
Метод сжатия : С потерями
Размер потока : 288 Мбайт (5%)
Заголовок : DUB Nota @DD5.1 AC3 ,640 Kbps, 48.0 KHz, 6 ch
Язык : Russian
ServiceKind/String : Complete Main
Default : Да
Forced : Нет

Аудио #2
Идентификатор : 7
Формат : AC-3
Формат/Информация : Audio Coding 3
Параметр Endianness формата : Big
Идентификатор кодека : A_AC3
Продолжительность : 1 ч. 2 м.
Вид битрейта : Постоянный
Битрейт : 384 Кбит/сек
Каналы : 6 каналов
Расположение каналов : Front: L C R, Side: L R, LFE
Частота : 48,0 КГц
Частота кадров : 31,250 кадров/сек (1536 spf)
Битовая глубина : 16 бит
Метод сжатия : С потерями
Размер потока : 173 Мбайт (3%)
Заголовок : MVO LostFilm @DD5.1 AC3, 384 Kbps, 48.0 KHz, 6 ch
Язык : Russian
ServiceKind/String : Complete Main
Default : Нет
Forced : Нет

Аудио #3
Идентификатор : 8
Формат : AC-3
Формат/Информация : Audio Coding 3
Параметр Endianness формата : Big
Идентификатор кодека : A_AC3
Продолжительность : 1 ч. 2 м.
Вид битрейта : Постоянный
Битрейт : 384 Кбит/сек
Каналы : 6 каналов
Расположение каналов : Front: L C R, Side: L R, LFE
Частота : 48,0 КГц
Частота кадров : 31,250 кадров/сек (1536 spf)
Битовая глубина : 16 бит
Метод сжатия : С потерями
Размер потока : 173 Мбайт (3%)
Заголовок : MVO Jaskier @DD5.1 AC3, 384 Kbps, 48.0 KHz, 6 ch
Язык : Russian
ServiceKind/String : Complete Main
Default : Нет
Forced : Нет

Аудио #4
Идентификатор : 9
Формат : AC-3
Формат/Информация : Audio Coding 3
Параметр Endianness формата : Big
Идентификатор кодека : A_AC3
Продолжительность : 1 ч. 2 м.
Вид битрейта : Постоянный
Битрейт : 384 Кбит/сек
Каналы : 6 каналов
Расположение каналов : Front: L C R, Side: L R, LFE
Частота : 48,0 КГц
Частота кадров : 31,250 кадров/сек (1536 spf)
Битовая глубина : 16 бит
Метод сжатия : С потерями
Размер потока : 173 Мбайт (3%)
Заголовок : MVO AlexFilm @DD5.1 AC3, 384 Kbps, 48.0 KHz, 6 ch
Язык : Russian
ServiceKind/String : Complete Main
Default : Нет
Forced : Нет

Аудио #5
Идентификатор : 10
Формат : AC-3
Формат/Информация : Audio Coding 3
Параметр Endianness формата : Big
Идентификатор кодека : A_AC3
Продолжительность : 1 ч. 2 м.
Вид битрейта : Постоянный
Битрейт : 384 Кбит/сек
Каналы : 6 каналов
Расположение каналов : Front: L C R, Side: L R, LFE
Частота : 48,0 КГц
Частота кадров : 31,250 кадров/сек (1536 spf)
Битовая глубина : 16 бит
Метод сжатия : С потерями
Размер потока : 173 Мбайт (3%)
Заголовок : MVO NewStudio @DD5.1 AC3, 384 Kbps, 48.0 KHz, 6 ch
Язык : Russian
ServiceKind/String : Complete Main
Default : Нет
Forced : Нет

Аудио #6
Идентификатор : 11
Формат : AC-3
Формат/Информация : Audio Coding 3
Параметр Endianness формата : Big
Идентификатор кодека : A_AC3
Продолжительность : 1 ч. 2 м.
Вид битрейта : Постоянный
Битрейт : 640 Кбит/сек
Каналы : 6 каналов
Расположение каналов : Front: L C R, Side: L R, LFE
Частота : 48,0 КГц
Частота кадров : 31,250 кадров/сек (1536 spf)
Битовая глубина : 16 бит
Метод сжатия : С потерями
Размер потока : 288 Мбайт (5%)
Заголовок : Original@DD5.1 AC3 ,640 Kbps, 48.0 KHz, 6 ch
Язык : English
ServiceKind/String : Complete Main
Default : Нет
Forced : Нет

Текст #1
Идентификатор : 2
Формат : UTF-8
Идентификатор кодека : S_TEXT/UTF8
Идентификатор кодека/Информация : UTF-8 Plain Text
Продолжительность : 59 м. 56 с.
Битрейт : 0 бит/сек
ElementCount : 9
Размер потока : 424 байт (0%)
Заголовок : Rus - Forced
Язык : Russian
Default : Да
Forced : Нет

Текст #2
Идентификатор : 3
Формат : UTF-8
Идентификатор кодека : S_TEXT/UTF8
Идентификатор кодека/Информация : UTF-8 Plain Text
Продолжительность : 59 м. 56 с.
Битрейт : 85 бит/сек
ElementCount : 573
Размер потока : 37,6 Кбайт (0%)
Заголовок : Rus - Full
Язык : Russian
Default : Нет
Forced : Нет

Текст #3
Идентификатор : 4
Формат : UTF-8
Идентификатор кодека : S_TEXT/UTF8
Идентификатор кодека/Информация : UTF-8 Plain Text
Продолжительность : 59 м. 25 с.
Битрейт : 54 бит/сек
ElementCount : 858
Размер потока : 23,8 Кбайт (0%)
Заголовок : Original - Full
Язык : English
Default : Нет
Forced : Нет

Текст #4
Идентификатор : 5
Формат : UTF-8
Идентификатор кодека : S_TEXT/UTF8
Идентификатор кодека/Информация : UTF-8 Plain Text
Продолжительность : 1 ч. 2 м.
Битрейт : 53 бит/сек
ElementCount : 914
Размер потока : 24,5 Кбайт (0%)
Заголовок : Original - SDH
Язык : English
Default : Нет
Forced : Нет

Меню
00:00:00.000 : en:Глава 01 / en:Глава 01 / en:Глава 01 / en:Глава 01 / en:Глава 01 / en:Глава 01 / en:Глава 01 / en:Глава 01 / en:Глава 01 / en:Глава 01 / en:Глава 01











1. Открыть торрент
2. Снять галки с тех файлов торрента, которые мы не хотим закачивать. Оставляем только на нужных нам файлах (файле).
3. Нажать О.К.

В клиенте utorrent

Инструкция

1) Открыть торрент


2) Снять галки с тех файлов торрента, которые мы не хотим закачивать:

* либо вручную, снимая с каждого файла галку( скрин №1)
* либо, нажав кнопку "Снять метки (Select None)", сняв сразу со всех файлов(скрин №2)
№1

№2

Оставляем только на нужных нам файлах (файле).

3)Нажать О.К







Внимание!!! 26.06. 2017. РАЗДАЧА ОБНОВЛЕНА. ОБНОВИТЕ ТОРЕНТ ФАЙЛ. ФИНАЛ СЕЗОНА. ПРИЯТНОГО ПРОСМОТРА .

Релиз от: Nikolai.Baranov & PIRATIYA







_________________

Легко быть оптимистом, когда судьба не валит с ног тяжелыми ударами, а лишь иногда легонько шлепает по заднице.


Вернуться к началу
 Профиль Отправить личное сообщение  
 
   Похожие торренты   Автор   Торрент   Размер 
В этой теме нет новых непрочитанных сообщений. Американские боги / American Gods [2017] (Сезон 1 , Серия 1- 8 из 8) (Дэвид Слэйд, Адам Кэйн, Винченцо Натали) [ Фэнтези, детектив , WEB-DLRip][720p][DUB][ Нота+LostFilm+AlexFilm+NewStudiо+Jaskier+Kubik V Kube+Eng]+[Subs ENG+Rus]

Враг Нароода

4 | 8

28.27 ГБ

В этой теме нет новых непрочитанных сообщений. Лучше звоните Солу / Better Call Saul [2017] (Сезон 3 , Серия 1-4 из 10) (Адам Бернштейн) [ Драма, комедия, криминал , WEB-DLRip][1080p][HEVC , 4К][Kravec+LostFilm+NewStudiо+BaibaKo+OmskBird+Jaskier+Kubik V Kube+Eng]+[Subs ENG]

Враг Нароода

0 | 0

17.37 ГБ

В этой теме нет новых непрочитанных сообщений. Лучше звоните Солу / Better Call Saul [2017] (Сезон 3 , Серия 1-10 из 10) (Адам Бернштейн) [ Драма, комедия, криминал , WEB-DLRip][1080p][HEVC][LostFilm+Pythagoras+Kravec+Jaskier+NewStudiо+BaibaKo+OmskBird+Kubik V Kube+Eng]+[Subs ENG]

Враг Нароода

0 | 0

46.98 ГБ

В этой теме нет новых непрочитанных сообщений. Проповедник / Preacher [2017] (Сезон 2, Серия 1-13 из 13) (Сет Роген) [Фэнтези, драма,, приключения , экранизация , WEB-DLRip] [720p] [DD5.1] [MVO] [LostFilm,AlexFilm,Jaskier,NewStudiо,OMSKBIRD,HamsterStudio,BaibaKo,Kubik V Kube, Eng + Subs

Враг Нароода

0 | 0

25.81 ГБ

В этой теме нет новых непрочитанных сообщений. Проповедник / Preacher [2017] (Сезон 2, Серия 1-13 из 13) (Сет Роген) [Фэнтези, драма,, приключения , экранизация , WEB-DLRip] [1080] [DD5.1] [MVO] [LostFilm,AlexFilm,Jaskier,NewStudiо,OMSKBIRD,HamsterStudio,BaibaKo,Kubik V Kube, Eng + Subs

Враг Нароода

0 | 0

45.07 ГБ

В этой теме нет новых непрочитанных сообщений. Орвилл / The Orville [2017] (Сезон 1 , Серия 1- 12 из 12) (Брэннон Брага, Джон Кассар) [Фантастика, драма, комедия , WEB-DLRip][1080p][LostFilm+AlexFilm+NewStudiо+Jaskier+ OMSKBIRD+BaibaKo+Kubik V Kube+Eng]+[Subs ENG]

Враг Нароода

0 | 0

52.32 ГБ

В этой теме нет новых непрочитанных сообщений. Террор / The Terror [2018] (Сезон 1 , Серия 1-10 из 10) (Милантс, Эдвард Бергер) [Ужасы, драма , WEB-DLRip][1080p][LostFilm+NewStudiо+AlexFilm+ProfixMedia+Kubik V Kube+Jaskier+Eng]+[Subs ENG+Rus]

Враг Нароода

1 | 3

38.09 ГБ


Начать новую тему Ответить на тему  [ 1 сообщение ] 




Для Мосгорсуда, Роскомнадзора и рекламодателей:: mosgorsud-torrent[собачка]yandex.ru
cron