Торрент файл
скачать торрент магнет ссылка Добавлен: 16 апр 2017, 16:16
Размер: 2.37 ГБ
Сидеров: 424
Личеров: 98
Статус: (salma3)
Автор

СообщениеДобавлено: 16 апр 2017, 16:16 

Не в сети
Супермодератор
Аватара пользователя
Дата регистрации:
15 фев 2012, 16:44
Возраст: 28
Спасибо: 7224 / 2147
Сообщения: 68142
Формат: WEB-DLRip-AVC
Режиссер: Валерий Рожнов
Жанр: драма, приключения, детектив, криминал
Продолжительность: 4 х ~ 00:45:00
Год выпуска: 2016

В ролях: Ольга Лерман, Татьяна Лютаева, Анатолий Котенёв, Арсений Робак, Антон Сёмкин, Александр Ивашкевич, Всеволод Болдин, Валерий Скорокосов, Галина Стаханова

Описание:
Провинциалка Вера, оставшись без денег и жилья, приезжает в Москву и устраивается сиделкой в богатый дом Гурьевых, расположенный за городом на краю леса. Поначалу Вера приходит в восторг от новой работы. Но вскоре она начинает замечать странности в поведении всех обитателей усадьбы. С каждым днём вопросов всё больше: почему адвокат Аркадий за семейным ужином занимает место хозяина дома? Откуда на теле её подопечного Николая каждое утро появляется новый кровоподтёк от инъекции, которой нет в предписании врача? Как предыдущая сиделка уехала в родной город без паспорта? И что за странный жилец обитает в гостевом домике? Обсудить свои догадки тоже не получается – все обитатели усадьбы хранят молчание. Вскоре из озера вылавливают тело молодой девушки, и в дом приезжает полиция…



Видео: 1024x576 (16:9), 25 fps, AVC MPEG-4 (x264), , ~ 1600 kbps avg, 0.109 bit/pixel
Аудио: 44 kHz, AC3, 2/0 (L,R) ch, ~192 kbps

Общее
Уникальный идентификатор : 178083431912018406983850618750560036721 (0x85F99F14D900C8469EFA11559726E771)
Полное имя : C:\Dom.Na.Kraju.Lesa.(2016).WEB-DLRip.(AVC).\Дом на краю леса.(2016).WEB-DLRip.(AVC).mkv
Формат : Matroska
Версия формата : Version 2
Размер файла : 569 Мбайт
Продолжительность : 44 м. 23 с.
Общий поток : 1792 Кбит/сек
Дата кодирования : UTC 2017-04-15 20:47:34
Программа кодирования : mkvmerge v7.8.0 ('River Man') 32bit built on Apr 3 2015 12:11:22
Библиотека кодирования : libebml v1.3.1 + libmatroska v1.4.2

Видео
Идентификатор : 1
Формат : AVC
Формат/Информация : Advanced Video Codec
Профиль формата :
Параметр CABAC формата : Да
Параметр ReFrames формата : 9 кадров
Идентификатор кодека : V_MPEG4/ISO/AVC
Продолжительность : 44 м. 23 с.
Битрейт : 1600 Кбит/сек
Ширина : 1024 пикселя
Высота : 576 пикселей
Соотношение сторон : 16:9
Режим частоты кадров : Постоянный
Частота кадров : 25,000 кадров/сек
Цветовое пространство : YUV
Субдискретизация насыщенности : 4:2:0
Битовая глубина : 8 бит
Тип развёртки : Прогрессивная
Бит/(Пиксели*Кадры) : 0.109
Размер потока : 497 Мбайт (87%)
Библиотека кодирования : x264 core 146 r2538 121396c
Настройки программы : cabac=1 / ref=9 / deblock=1:-2:-1 / analyse=0x3:0x113 / me=umh / subme=9 / psy=1 / psy_rd=1.00:0.15 / mixed_ref=1 / me_range=32 / chroma_me=1 / trellis=2 / 8x8dct=1 / cqm=0 / deadzone=21,11 / fast_pskip=0 / chroma_qp_offset=-3 / threads=6 / lookahead_threads=1 / sliced_threads=0 / nr=0 / decimate=1 / interlaced=0 / bluray_compat=0 / constrained_intra=0 / bframes=9 / b_pyramid=2 / b_adapt=2 / b_bias=0 / direct=1 / weightb=1 / open_gop=0 / weightp=2 / keyint=250 / keyint_min=25 / scenecut=40 / intra_refresh=0 / rc_lookahead=50 / rc=2pass / mbtree=0 / bitrate=1600 / ratetol=1.0 / qcomp=0.60 / qpmin=0 / qpmax=69 / qpstep=4 / cplxblur=20.0 / qblur=0.5 / vbv_maxrate=14000 / vbv_bufsize=14000 / nal_hrd=none / filler=0 / ip_ratio=1.40 / pb_ratio=1.30 / aq=2:1.00
Default : Да
Forced : Нет
Цветовой диапазон : Limited
Основные цвета : BT.709
Характеристики трансфера : BT.709
Коэффициенты матрицы : BT.709

Аудио
Идентификатор : 2
Формат : AC-3
Формат/Информация : Audio Coding 3
Параметр Endianness формата : Big
Идентификатор кодека : A_AC3
Продолжительность : 44 м. 23 с.
Вид битрейта : Постоянный
Битрейт : 192 Кбит/сек
Каналы : 2 канала
Расположение каналов : Front: L R
Частота : 44,1 КГц
Частота кадров : 28,711 кадров/сек (1536 spf)
Битовая глубина : 16 бит
Метод сжатия : С потерями
Размер потока : 61,0 Мбайт (11%)
ServiceKind/String : Complete Main
Default : Да
Forced : Нет




_________________
Проголосуй за трекер Открытый торрент трекер - RUS-MEDIA.ORG

Проголосуй Открытый торрент трекер - RUS-MEDIA.ORG


Вернуться к началу
 Профиль Отправить личное сообщение  
 
   Похожие торренты   Автор   Торрент   Размер 
В этой теме нет новых непрочитанных сообщений. Дом на краю леса (1-4 серии из 4) [детектив, криминал, 2017] WEB-DLRip

salma3

360 | 68

2.45 ГБ

В этой теме нет новых непрочитанных сообщений. Мажор (2 сезон: 1-12 серии из 12) [криминал, драма, детектив, 2016] WEB-DLRip-AVC

salma3

834 | 1361

8.61 ГБ

В этой теме нет новых непрочитанных сообщений. Мавр сделал своё дело (1-4 серии из 4) [детектив, драма, криминал, экранизация, 2016] WEB-DLRip

salma3

1951 | 664

2.34 ГБ

В этой теме нет новых непрочитанных сообщений. База Куантико / Quantico / 2 сезон 1-22 серии из 22 [триллер, драма, криминал, детектив, 2016] WEB-DLRip, Mvo [NewStudio]

salma3

9 | 12

11.39 ГБ

В этой теме нет новых непрочитанных сообщений. Риццоли и Айлз / Rizzoli & Isles / 7 сезон 1-13 серии из 13 [драма, криминал, детектив, 2016] WEB-DLRip, Mvo [NewStudio]

salma3

41 | 26

6.84 ГБ

В этой теме нет новых непрочитанных сообщений. Инферно / Inferno (боевик, триллер, драма, криминал, детектив, приключения, 2016) WEB-DLRip от Scarabey | Line

marya111

4686 | 607

1.45 ГБ

В этой теме нет новых непрочитанных сообщений. Инферно / Inferno (боевик, триллер, драма, криминал, детектив, приключения, 2016) WEB-DLRip от Scarabey | Line

marya111

1540 | 205

2.18 ГБ


Начать новую тему Ответить на тему  [ 1 сообщение ] 




Для Мосгорсуда, Роскомнадзора и рекламодателей:: mosgorsud-torrent[собачка]yandex.ru
cron