Торрент файл
скачать торрент магнет ссылка Добавлен: 15 апр 2017, 12:27
Размер: 18.85 ГБ
Сидеров: 0
Личеров: 0
Автор

СообщениеДобавлено: 12 апр 2017, 12:48 

Не в сети
Аватара пользователя
Дата регистрации:
09 авг 2014, 12:07
Спасибо: 63 / 1
Сообщения: 231
Откуда: КРАСНОГОРСК
Мертв на 99% / DEAD AT 99% Серии 1-10 из 10



Год выпуска: 2017
Выпущено: Россия, Киностудия "ИКа фильм"
Жанр:Драма, боевик, детектив, криминал
Продолжительность: 00:48:00
Серии: 1-10
Количество серий в сезоне: 10

Озвучка : -Русский

Субтитры: НЕТ



Кинопоиск

Режиссер:
Степан Коршунов

В ролях: Алексей Чадов, Анна Старшенбаум, Олег Тактаров, Константин Адаев, Олег Мазуров, Борис Хвошнянский, Александр Наумов, Анна Попова, Максим Митяшин, Евгения Храповицкая, Александра Чичкова, Сабина Ахмедова, Олег Морозов, Вероника Тимофеева, Галина Звягинцева, Анна Бачалова, Максим Амельченко



Артём умеет красиво зарабатывать деньги и легко с ними расставаться. Его жизнь напоминает сказку: дорогие спорткары, роскошные лофты, элитные рестораны и девушка-модель… Идиллия заканчивается, когда Артёма принимают за опасного преступника по кличке Змей. За Змеем охотятся и Интерпол, и агент ФСБ Хромов, и обманутые им торговцы оружием из Албании. У полковника Хромова есть сомнения, кто же на самом деле этот Змей? Может преступник присвоил внешность Артова и занял его место успешного архитектора? Чтобы вернуть себе имя и отстоять право на жизнь, Артёму предстоит выживать в огромном городе без денег, машины и документов.



Качество : HDTV 1080i
Формат: MKV
Видео кодек: H264
Видео: 5616Kбит/сек,1920х1080(16.9),в 25.051кадр/сек,AVC (High@L4)(CABAC/2 Ref Frames)
Аудио Кодек:AC3
Аудио #:AC3 , 384 Kbps, 48.0 KHz, 6 ch-Русский

Общее
Уникальный идентификатор : 242932311958091661833197082108569060268 (0xB6C30FB84C917887B2E7ED1DDB5C03AC)
Полное имя : C:\ПИРАТИЯ(PIRATIYA)\HDTV 1080p\МЁРТВ НА 99%\DEAD_AT_99%_2017_S01_Rus_HTV_HD_Russia_H264_DD5.1_N.B_HDTV_1080i\DEAD_AT_99%_E01-E02_Rus_HTV_HD_Russia_H264_DD5.1_N.B_HDTV_1080i.mkv
Формат : Matroska
Версия формата : Version 4 / Version 2
Размер файла : 4,04 Гбайт
Продолжительность : 1 ч. 36 м.
Режим общего битрейта : Переменный
Общий поток : 6002 Кбит/сек
Название фильма : DEAD_AT_99%_E01-E02_Rus_HTV_HD_Russia_H264_DD5.1_N.B_HDTV_1080i
Дата кодирования : UTC 2017-04-11 19:05:22
Программа кодирования : mkvmerge v10.0.0 ('To Drown In You') 64bit
Библиотека кодирования : libebml v1.3.4 + libmatroska v1.4.5

Видео
Идентификатор : 1
Формат : AVC
Формат/Информация : Advanced Video Codec
Профиль формата : High@L4
Параметр CABAC формата : Да
Параметр ReFrames формата : 2 кадра
Параметр GOP формата : M=2, N=15
Идентификатор кодека : V_MPEG4/ISO/AVC
Продолжительность : 1 ч. 36 м.
Вид битрейта : Переменный
Битрейт : 5616 Кбит/сек
Максимальный битрейт : 16,0 Мбит/сек
Ширина : 1920 пикселей
Высота : 1080 пикселей
Соотношение сторон : 16:9
Режим частоты кадров : Переменный
Частота кадров : 25,051 кадров/сек
Частота кадров в оригинале : 29,970 (30000/1001) кадров/сек
Цветовое пространство : YUV
Субдискретизация насыщенности : 4:2:0
Битовая глубина : 8 бит
Тип развёртки : Прогрессивная
Бит/(Пиксели*Кадры) : 0.108
Размер потока : 3,78 Гбайт (94%)
Заголовок : DEAD_AT_99%_E01-E02_Rus_HTV_HD_Russia_H264_DD5.1_N.B_HDTV_1080i
Язык : Russian
Default : Нет
Forced : Нет

Аудио
Идентификатор : 2
Формат : AC-3
Формат/Информация : Audio Coding 3
Параметр Endianness формата : Big
Идентификатор кодека : A_AC3
Продолжительность : 1 ч. 36 м.
Вид битрейта : Постоянный
Битрейт : 384 Кбит/сек
Каналы : 6 каналов
Расположение каналов : Front: L C R, Side: L R, LFE
Частота : 48,0 КГц
Частота кадров : 31,250 кадров/сек (1536 spf)
Битовая глубина : 16 бит
Метод сжатия : С потерями
Размер потока : 265 Мбайт (6%)
Заголовок : Original@DD5.1 AC3 ,384 Kbps, 48.0 KHz, 6 ch
Язык : Russian
ServiceKind/String : Complete Main
Default : Нет
Forced : Нет

Меню
00:00:00.000 : en:Глава 01 / en:Глава 01












1. Открыть торрент
2. Снять галки с тех файлов торрента, которые мы не хотим закачивать. Оставляем только на нужных нам файлах (файле).
3. Нажать О.К.

В клиенте utorrent

Инструкция

1) Открыть торрент


2) Снять галки с тех файлов торрента, которые мы не хотим закачивать:

* либо вручную, снимая с каждого файла галку( скрин №1)
* либо, нажав кнопку "Снять метки (Select None)", сняв сразу со всех файлов(скрин №2)
№1

№2

Оставляем только на нужных нам файлах (файле).

3)Нажать О.К










Внимание!!! 15.04. 2017. РАЗДАЧА ОБНОВЛЕНА. ФИНАЛ СЕРИАЛА. ОБНОВИТЕ ТОРЕНТ ФАЙЛ.ПРИЯТНОГО ПРОСМОТРА .



Релиз от: Nikolai.Baranov & PIRATIYA







_________________

Легко быть оптимистом, когда судьба не валит с ног тяжелыми ударами, а лишь иногда легонько шлепает по заднице.


Вернуться к началу
 Профиль Отправить личное сообщение  
 
   Похожие торренты   Автор   Торрент   Размер 
В этой теме нет новых непрочитанных сообщений. Стегман мертв / Stegman Is Dead [комедия, криминал, 2017] DVDRip, Dvo

salma3

0 | 0

1.24 ГБ

В этой теме нет новых непрочитанных сообщений. Ни жив, ни мертв / Half Past Dead [боевик, триллер, криминал, 2002] BDRip, Dub

salma3

111 | 33

1.46 ГБ

В этой теме нет новых непрочитанных сообщений. Бен Ладен: жив или мёртв / Tere Bin Laden Dead or Alive [Комедия, приключения, 2016] HDTV 1080i, Dvo

salma3

166 | 54

5.13 ГБ

В этой теме нет новых непрочитанных сообщений. Мурка / Murka (Серии 1-12 из 12) (Антон Розенберг, Ярослав Мочалов) [2017, Драма , детектив , HDTVRip 1080i] [DD5.1]

Враг Нароода

3 | 2

33.93 ГБ

В этой теме нет новых непрочитанных сообщений. Штрафник / The penalty box (Серии 1-12 из 12) Олег Фомин) [2017, Детектив , HDTVRip 1080i] [DD5.1]

Враг Нароода

2 | 3

29.34 ГБ

В этой теме нет новых непрочитанных сообщений. Свидетели (1-18 серии из 20) [детектив, драма, криминал, 2017] HDTVRip 720p

salma3

32 | 70

21.06 ГБ

В этой теме нет новых непрочитанных сообщений. Охота на дьявола / Hunt For The Devil (Серии 1-16 из 16) ( Давид Ткебучава) [2017, Детектив, шпионский фильм , HDTVRip 1080i] [DD5.1]

Враг Нароода

0 | 0

36.91 ГБ


Начать новую тему Ответить на тему  [ 1 сообщение ] 




Для Мосгорсуда, Роскомнадзора и рекламодателей:: mosgorsud-torrent[собачка]yandex.ru
cron