Торрент файл
скачать торрент магнет ссылка Добавлен: 29 апр 2017, 19:55
Размер: 13.75 ГБ
Сидеров: 0
Личеров: 0
Автор

СообщениеДобавлено: 10 апр 2017, 23:56 

Не в сети
Аватара пользователя
Дата регистрации:
09 авг 2014, 12:07
Спасибо: 61 / 1
Сообщения: 219
Откуда: КРАСНОГОРСК
Побег: Продолжение / Prison Break: Sequel Сезон 1 , Серия 1-4 из 9




Год выпуска: 2017
Выпущено: США, Adelstein-Parouse Productions, Original Television, 20th Century Fox Television
Жанр: Боевик, триллер, драма, криминал, детектив
Продолжительность: 00:43:00
Сезон:1
Серия:1-4
Количество серий в сезоне: 9

Озвучка1: Профессиональный многоголосый - LostFilm -Русский

Озвучка2: Профессиональный многоголосый - FOX -Русский

Озвучка3: Профессиональный многоголосый - NewStudiо -Русский

Озвучка4: Профессиональный многоголосый - BaibaKo -Русский

Озвучка5: Профессиональный многоголосый - OmskBird -Русский

Озвучка6: Профессиональный многоголосый - Jaskier -Русский

Озвучка 7: Профессиональный многоголосый - Английский - Оригинал

Субтитры: : Russian , English


MDB

Режиссер:
Нельсон МакКормик

Актеры:
Доминик Пёрселл, Вентворт Миллер, Амори Ноласко, Роберт Неппер, Сара Уэйн Кэллис, Рокмонд Данбар, Марина Бенедикт, Кристиан Майкл Купер, Марк Фойерстин, Стив Музакис, Эмин Эль Гамин, Кертис Льюм, Бобби Надери, Пол Адельштейн



В руки Ти-Бэга попадает снимок, которые доказывает, что Майкл Скофилд, считавшийся погибшим вот уже семь лет, все это время был жив. Ти-Бэг сообщает об этом Линкольну, и тот объединяется со старыми друзьями, чтобы найти брата. Поиски приводят их в тюрьму Йемена. Герои решают вытащить Майкла из-за решетки и планируют масштабный побег.





Качество :WEB-DLRip 1080p
Формат: MKV
Видео кодек: H264
Видео: 8150Кбит/сек,1920х1080(16.9), в 23.976кадр/сек,AVC (НТSC) (High@L5.1)(CABAC/4 Ref Frames)
Аудио Кодек:AC3

Аудио #1:AC3 , 640 Kbps, 48.0 KHz, 6 ch- LostFilm -Русский

Аудио #2:AC3 , 384 Kbps, 48.0 KHz, 6 ch- FOX -Русский

Аудио #3:AC3 , 384 Kbps, 48.0 KHz, 6 ch- NewStudiо -Русский

Аудио #4:AC3 , 384 Kbps, 48.0 KHz, 6 ch- BaibaKo -Русский

Аудио #5:AC3 , 384 Kbps, 48.0 KHz, 6 ch- OmskBird -Русский

Аудио #6:AC3 , 384 Kbps, 48.0 KHz, 6 ch- Jaskier -Русский

Аудио #7: AC3, 640 Kbps, 48.0 KHz,6 ch - - English - Оригинал


Звуковая дорожка сделана путем наложения чистого голоса озвучивателей на центральный канал оригинальной дорожки. Качество идентично звуковой дорожке.



1 сезон 1 серия Огигия - Ogygia
1 сезон 2 серия Каниэль Аутис - Kaniel Outis
1 сезон 3 серия Лжец - The Liar
1 сезон 4 серия Дилемма заключенного - The Prisoner's Dilemma




Общее
Уникальный идентификатор : 239032950974831251936161932144939243378 (0xB3D4126156A6BFA8BDDB91DCA4521772)
Полное имя : C:\ПИРАТИЯ(PIRATIYA)\HDTV 1080p\ПОБЕГ ПРОДОЛЖЕНИЕ\Prison_Break_Sequel_2017_S01_5хRus_Eng[LostFilm_ FOX_NewStudio_BaibaKo_OmskBird_Jaskier]_N.B_WEB-DL_1080р\Prison_Break_Sequel_2017_S01Е01_6хRus_Eng_H264_DD5.1_N.B_WEBRip_1080p.mkv
Формат : Matroska
Версия формата : Version 4 / Version 2
Размер файла : 3,41 Гбайт
Продолжительность : 43 м. 1 с.
Режим общего битрейта : Переменный
Общий поток : 11,4 Мбит/сек
Название фильма : Prison_Break_Sequel_2017_S01Е01_6хRus_Eng_H264_DD5.1_N.B_WEBRip_1080p
Дата кодирования : UTC 2017-04-21 10:35:14
Программа кодирования : mkvmerge v10.0.0 ('To Drown In You') 64bit
Библиотека кодирования : libebml v1.3.4 + libmatroska v1.4.5

Видео
Идентификатор : 1
Формат : AVC
Формат/Информация : Advanced Video Codec
Профиль формат :at: а : High@L5.1
Параметр CABAC формата : Да
Параметр ReFrames формата : 4 кадра
Идентификатор кодека : V_MPEG4/ISO/AVC
Продолжительность : 43 м. 1 с.
Вид битрейта : Переменный
Битрейт : 8150 Кбит/сек
Максимальный битрейт : 8317 Кбит/сек
Ширина : 1920 пикселей
Высота : 1080 пикселей
Соотношение сторон : 16:9
Режим частоты кадров : Постоянный
Частота кадров : 23,976 (24000/1001) кадра/сек
Стандарт вещания : NTSC
Цветовое пространство : YUV
Субдискретизация насыщенности : 4:2:0
Битовая глубина : 8 бит
Тип развёртки : Прогрессивная
Бит/(Пиксели*Кадры) : 0.164
Размер потока : 2,45 Гбайт (72%)
Заголовок : Prison_Break_Sequel_2017_S01Е01_6хRus_Eng_H264_DD5.1_N.B_WEBRip_1080p
Язык : Russian
Default : Да
Forced : Нет
Цветовой диапазон : Full
Основные цвета : BT.709
Характеристики трансфера : BT.709
Коэффициенты матрицы : BT.709

Аудио #1
Идентификатор : 4
Формат : AC-3
Формат/Информация : Audio Coding 3
Параметр Endianness формата : Big
Идентификатор кодека : A_AC3
Продолжительность : 43 м. 1 с.
Вид битрейта : Постоянный
Битрейт : 640 Кбит/сек
Каналы : 6 каналов
Расположение каналов : Front: L C R, Side: L R, LFE
Частота : 48,0 КГц
Частота кадров : 31,250 кадров/сек (1536 spf)
Битовая глубина : 16 бит
Метод сжатия : С потерями
Размер потока : 197 Мбайт (6%)
Заголовок : MVO LostFilm @DD5.1 AC3, 640 Kbps, 48.0 KHz, 6 ch
Язык : Russian
ServiceKind/String : Complete Main
Default : Да
Forced : Нет

Аудио #2
Идентификатор : 5
Формат : AC-3
Формат/Информация : Audio Coding 3
Параметр Endianness формата : Big
Идентификатор кодека : A_AC3
Продолжительность : 43 м. 1 с.
Вид битрейта : Постоянный
Битрейт : 384 Кбит/сек
Каналы : 6 каналов
Расположение каналов : Front: L C R, Side: L R, LFE
Частота : 48,0 КГц
Частота кадров : 31,250 кадров/сек (1536 spf)
Битовая глубина : 16 бит
Метод сжатия : С потерями
Размер потока : 118 Мбайт (3%)
Заголовок : MVO Fox @DD5.1 AC3, 384 Kbps, 48.0 KHz, 6 ch
Язык : Russian
ServiceKind/String : Complete Main
Default : Нет
Forced : Нет

Аудио #3
Идентификатор : 6
Формат : AC-3
Формат/Информация : Audio Coding 3
Параметр Endianness формата : Big
Идентификатор кодека : A_AC3
Продолжительность : 43 м. 1 с.
Вид битрейта : Постоянный
Битрейт : 384 Кбит/сек
Каналы : 6 каналов
Расположение каналов : Front: L C R, Side: L R, LFE
Частота : 48,0 КГц
Частота кадров : 31,250 кадров/сек (1536 spf)
Битовая глубина : 16 бит
Метод сжатия : С потерями
Размер потока : 118 Мбайт (3%)
Заголовок : MVO NewStudio @DD5.1 AC3, 384 Kbps, 48.0 KHz, 6 ch
Язык : Russian
ServiceKind/String : Complete Main
Default : Нет
Forced : Нет

Аудио #4
Идентификатор : 7
Формат : AC-3
Формат/Информация : Audio Coding 3
Параметр Endianness формата : Big
Идентификатор кодека : A_AC3
Продолжительность : 43 м. 1 с.
Вид битрейта : Постоянный
Битрейт : 384 Кбит/сек
Каналы : 6 каналов
Расположение каналов : Front: L C R, Side: L R, LFE
Частота : 48,0 КГц
Частота кадров : 31,250 кадров/сек (1536 spf)
Битовая глубина : 16 бит
Метод сжатия : С потерями
Размер потока : 118 Мбайт (3%)
Заголовок : MVO BaibaKo @DD5.1 AC3, 384 Kbps, 48.0 KHz, 6 ch
Язык : Russian
ServiceKind/String : Complete Main
Default : Нет
Forced : Нет

Аудио #5
Идентификатор : 8
Формат : AC-3
Формат/Информация : Audio Coding 3
Параметр Endianness формата : Big
Идентификатор кодека : A_AC3
Продолжительность : 43 м. 1 с.
Вид битрейта : Постоянный
Битрейт : 384 Кбит/сек
Каналы : 6 каналов
Расположение каналов : Front: L C R, Side: L R, LFE
Частота : 48,0 КГц
Частота кадров : 31,250 кадров/сек (1536 spf)
Битовая глубина : 16 бит
Метод сжатия : С потерями
Размер потока : 118 Мбайт (3%)
Заголовок : MVO OmskBird @DD5.1 AC3, 384 Kbps, 48.0 KHz, 6 ch
Язык : Russian
ServiceKind/String : Complete Main
Default : Нет
Forced : Нет

Аудио #6
Идентификатор : 9
Формат : AC-3
Формат/Информация : Audio Coding 3
Параметр Endianness формата : Big
Идентификатор кодека : A_AC3
Продолжительность : 43 м. 1 с.
Вид битрейта : Постоянный
Битрейт : 640 Кбит/сек
Каналы : 6 каналов
Расположение каналов : Front: L C R, Side: L R, LFE
Частота : 48,0 КГц
Частота кадров : 31,250 кадров/сек (1536 spf)
Битовая глубина : 16 бит
Метод сжатия : С потерями
Размер потока : 197 Мбайт (6%)
Заголовок : Original@DD5.1 AC3 ,640 Kbps, 48.0 KHz, 6 ch
Язык : English
ServiceKind/String : Complete Main
Default : Нет
Forced : Нет

Аудио #7
Идентификатор : 10
Формат : AC-3
Формат/Информация : Audio Coding 3
Параметр Endianness формата : Big
Идентификатор кодека : A_AC3
Продолжительность : 43 м. 1 с.
Вид битрейта : Постоянный
Битрейт : 384 Кбит/сек
Каналы : 6 каналов
Расположение каналов : Front: L C R, Side: L R, LFE
Частота : 48,0 КГц
Частота кадров : 31,250 кадров/сек (1536 spf)
Битовая глубина : 16 бит
Метод сжатия : С потерями
Размер потока : 118 Мбайт (3%)
Заголовок : MVO Jaskier @DD5.1 AC3, 384 Kbps, 48.0 KHz, 6 ch
Язык : Russian
ServiceKind/String : Complete Main
Default : Нет
Forced : Нет

Текст #1
Идентификатор : 2
Формат : UTF-8
Идентификатор кодека : S_TEXT/UTF8
Идентификатор кодека/Информация : UTF-8 Plain Text
Продолжительность : 42 м. 13 с.
Битрейт : 104 бит/сек
ElementCount : 658
Размер потока : 32,4 Кбайт (0%)
Заголовок : Rus
Язык : Russian
Default : Да
Forced : Нет

Текст #2
Идентификатор : 3
Формат : UTF-8
Идентификатор кодека : S_TEXT/UTF8
Идентификатор кодека/Информация : UTF-8 Plain Text
Продолжительность : 42 м. 57 с.
Битрейт : 67 бит/сек
ElementCount : 781
Размер потока : 21,3 Кбайт (0%)
Заголовок : Original
Язык : English
Default : Нет
Forced : Нет

Меню
00:00:00.000 : en:Глава 01 / en:Глава 01 / en:Глава 01 / en:Глава 01 / en:Глава 01 / en:Глава 01 / en:Глава 01 / en:Глава 01 / en:Глава 01 / en:Глава 01












Внимание! Раздача пополняется по мере выхода новых серий!


Раздача ведётся путём добавления новых серий; при каждом добавлении создётся новый торрент.
Чтобы начать докачку новой серии, пользователям необходимо сделать следующее:
1. остановить скачивание,
2. удалить старый торрент у себя из клиента (старые серии удалять не надо),
3. скачать новый торрент и запустить его у себя в клиенте вместо старого, при этом указать клиенту путь в старую папку, куда и должно происходить скачивание новых серий.

Ваш клиент при этом должен произвести хеширование (проверку) старой папки (если не производит сам - помогите ему сделать это), и будет докачивать только те серии которых у вас ещё нет. Старые серии при этом не удаляются, а продолжают раздаваться!

Eсли вы уже удалили старые серии, то предотвратить повторную закачку старых серий можно, отжав галочку в соответсвующих местах при запуске нового торрента. По возможности, желательно не удалять старые серии как можно дольше, чтобы релизёр не столько продолжал раздавать старые серии, а смог сконцентрироваться на новых.

Совет для тех, кто не хочет ждать перехеширования:
Создайте ещё одну папку рядом с папкой сериала (рядом, а не в ней!!!). Каждую новую серию после удачной загрузки копируйте в новую папку так чтобы ваша основная папка всегда была пуста. Когда ваш новый торрент предложит вам закачать все файлы, выберете только последнюю. Для сидирования же укажите адрес новой папки.

Как закачать отдельный файл из торрента или докачать ранее пропущенные файлы торрента!

1. Открыть торрент
2. Снять галки с тех файлов торрента, которые мы не хотим закачивать. Оставляем только на нужных нам файлах (файле).
3. Нажать О.К.

В клиенте utorrent

Инструкция

1) Открыть торрент


2) Снять галки с тех файлов торрента, которые мы не хотим закачивать:

* либо вручную, снимая с каждого файла галку( скрин №1)
* либо, нажав кнопку "Снять метки (Select None)", сняв сразу со всех файлов(скрин №2)
№1

№2

Оставляем только на нужных нам файлах (файле).

3)Нажать О.К










Внимание!!! 29.04. 2017. РАЗДАЧА ОБНОВЛЕНА. ОБНОВИТЕ ТОРЕНТ ФАЙЛ.ПРИЯТНОГО ПРОСМОТРА .






Релиз от: Nikolai.Baranov & PIRATIYA







_________________

Легко быть оптимистом, когда судьба не валит с ног тяжелыми ударами, а лишь иногда легонько шлепает по заднице.



реклама партнёра


Вернуться к началу
 Профиль Отправить личное сообщение  
 
   Похожие торренты   Автор   Торрент   Размер 
В этой теме нет новых непрочитанных сообщений. Побег: Продолжение / Prison Break: Sequel (Сезон 1 , Серия 1-9 из 9) (Нельсон МакКормик) [2017 , Боевик, триллер, драма, криминал, детектив , WEB-DLRip][1080p] [LostFilm+FOX+NewStudiо+BaibaKo+OmskBird+Jaskier+Eng]+[Subs Rus ,ENG]

Враг Нароода

6 | 4

30.17 ГБ

В этой теме нет новых непрочитанных сообщений. Побег: Продолжение / Prison Break: Sequel (Сезон 1 , Серия 1-9 из 9) (Нельсон МакКормик) [2017 , Боевик, триллер, драма, криминал, детектив , WEB-DLRip][720p] [LostFilm+FOX+NewStudiо+BaibaKo+OmskBird+Jaskier+Eng]+[Subs Rus ,ENG]

Враг Нароода

1 | 4

21.35 ГБ

В этой теме нет новых непрочитанных сообщений. Побег: Продолжение / Prison Break: Sequel [S05] [боевик, триллер, драма, 2017] WEB-DL 1080p, Mvo [LostFilm]

salma3

9 | 3

16.16 ГБ

В этой теме нет новых непрочитанных сообщений. Лучше звоните Солу / Better Call Saul [2017] (Сезон 3 , Серия 1-4 из 10) (Адам Бернштейн) [ Драма, комедия, криминал , WEB-DLRip][1080p][HEVC , 4К][Kravec+LostFilm+NewStudiо+BaibaKo+OmskBird+Jaskier+Kubik V Kube+Eng]+[Subs ENG]

Враг Нароода

0 | 0

17.37 ГБ

В этой теме нет новых непрочитанных сообщений. Лучше звоните Солу / Better Call Saul [2017] (Сезон 3 , Серия 1-10 из 10) (Адам Бернштейн) [ Драма, комедия, криминал , WEB-DLRip][1080p][HEVC][LostFilm+Pythagoras+Kravec+Jaskier+NewStudiо+BaibaKo+OmskBird+Kubik V Kube+Eng]+[Subs ENG]

Враг Нароода

0 | 0

46.98 ГБ

В этой теме нет новых непрочитанных сообщений. Орвилл / The Orville [2017] (Сезон 1 , Серия 1- 5 из 13) (Брэннон Брага, Джон Кассар) [Фантастика, драма, комедия , WEB-DLRip][1080p][LostFilm+AlexFilm+NewStudiо+Jaskier+ OMSKBIRD+BaibaKo+Kubik V Kube+Eng]+[Subs ENG]

Враг Нароода

0 | 0

21.53 ГБ

В этой теме нет новых непрочитанных сообщений. Лучше звоните Солу / Better Call Saul [2017] (Сезон 3 , Серия 1-10 из 10) (Адам Бернштейн) [ Драма, комедия, криминал , WEB-DLRip][720p][H264][LostFilm+Pythagoras+Kravec+Jaskier+NewStudiо+BaibaKo+OmskBird+Kubik V Kube+Eng]+[Subs ENG]

Враг Нароода

1 | 0

27.55 ГБ


Начать новую тему Ответить на тему  [ 1 сообщение ] 




Для Мосгорсуда, Роскомнадзора и рекламодателей:: mosgorsud-torrent[собачка]yandex.ru