Торрент файл
скачать торрент магнет ссылка Добавлен: 10 апр 2017, 16:01
Размер: 50.48 ГБ
Сидеров: 34
Личеров: 31
Статус: (salma3)
Автор

СообщениеДобавлено: 10 апр 2017, 16:01 

Не в сети
Супермодератор
Аватара пользователя
Дата регистрации:
15 фев 2012, 16:44
Возраст: 28
Спасибо: 6659 / 2146
Сообщения: 46021
Год выпуска: 2002–2007
Жанр:фантастика, фэнтези, драма
Режиссеры: Джеймс Хэд, Майкл Робисан, Майк Рол

В ролях: Энтони Майкл Холл, Николь де Бур, Крис Бруно, Джон Л. Адамс, Дэвид Огден Стайерз, Билл Монди, Спенсер Актимичук, Кристен Далтон

Описание:Джонни Смит вёл тихую жизнь в маленьком городке. Он преподавал естественные науки в школе, был помолвлен с Сарой, единственной любовью всей его жизни, и заботился об овдовевшей матери Вере, живущей по соседству. Но после автокатастрофы, в которой он чуть не погиб, Джонни впадает в глубокую кому. Сознание возвращается к нему только шесть лет спустя… За это время многое успело перемениться: Сара вышла замуж за местного шерифа Уолта Баннермена, ребёнок, которого растят Сара и её муж,-сын Джонни, и он ничего не знает о своем настоящем отце, мать Джонни Вера умерла, оставив все деньги — и свои, и Джонни — в распоряжение отца Парди, влиятельного религиозного лидера, который был когда-то её любовником. Но что самое важное, перемены произошли и в самом Джонни: в нём открылся дар видеть то, что не могут видеть другие. Джонни научился видеть будущее, но означает ли это, что он сможет изменять его..?



Страна: Канада / США
Продолжительность:80х ~00:41:00
Перевод сезоны 1-5:Профессиональный (многоголосый)ОРТ
Перевод сезон 6:[/color] Профессиональный (многоголосый)[AXN]

Качество: DVDRip
Видео: 704x400 (16:9), 25.000 fps, XviD build 73 ~2 000 kbps avg
Аудио: 48.0 kHz, AC3 Dolby Digital, 2/0 (L,R) ch, ~256 kbps

General
Complete name : s01e01_Wheel.of.Fortune.avi
Format : AVI
Format/Info : Audio Video Interleave
File size : 660 MiB
Duration : 40mn 44s
Overall bit rate : 2 265 Kbps
Writing application : VirtualDubMod 1.5.10.3 | (build 2550/release)
Writing library : VirtualDubMod build 2550/release

Video
ID : 0
Format : MPEG-4 Visual
Format profile : Advanced Simple@L5
Format settings, BVOP : 2
Format settings, QPel : No
Format settings, GMC : No warppoints
Format settings, Matrix : Custom
Codec ID : XVID
Codec ID/Hint : XviD
Duration : 40mn 44s
Bit rate : 2 000 Kbps
Width : 704 pixels
Height : 400 pixels
Display aspect ratio : 16:9
Frame rate : 25.000 fps
Color space : YUV
Chroma subsampling : 4:2:0
Bit depth : 8 bits
Scan type : Progressive
Compression mode : Lossy
Bits/(Pixel*Frame) : 0.284
Stream size : 583 MiB (88%)
Writing library : XviD 73

Audio
ID : 1
Format : AC-3
Format/Info : Audio Coding 3
Mode extension : CM (complete main)
Format settings, Endianness : Big
Codec ID : 2000
Duration : 40mn 44s
Bit rate mode : Constant
Bit rate : 256 Kbps
Channel(s) : 2 channels
Channel positions : Front: L R
Sampling rate : 48.0 KHz
Frame rate : 31.250 fps (1536 spf)
Compression mode : Lossy
Stream size : 74.6 MiB (11%)
Alignment : Split accross interleaves
Interleave, duration : 40 ms (1.00 video frame)
Interleave, preload duratio : 500 ms

Релиз от: tеko


_________________
Проголосуй за трекер Открытый торрент трекер - RUS-MEDIA.ORG

Проголосуй Открытый торрент трекер - RUS-MEDIA.ORG



реклама партнёра


Вернуться к началу
 Профиль Отправить личное сообщение  
 
   Похожие торренты   Автор   Торрент   Размер 
В этой теме нет новых непрочитанных сообщений. Мертвая зона / The Dead Zone [ужасы, триллер, драма, детектив, 1983] BDRip, Mvo [ТВ3]

salma3

43 | 8

1.46 ГБ

В этой теме нет новых непрочитанных сообщений. Сумеречная зона / Twilight Zone: The Movie [Ужасы, фантастика, фэнтези, 1983] HDRip, Mvo

salma3

5 | 0

745.26 МБ

В этой теме нет новых непрочитанных сообщений. Сумеречная зона / Twilight Zone: The Movie [ужасы, фантастика, фэнтези, 1983] BDRip 720p, Mvo

salma3

17 | 10

4.9 ГБ

В этой теме нет новых непрочитанных сообщений. Сумеречная зона: Фильм / Twilight Zone: The Movie [ужасы, фантастика, фэнтези, 1983] BDRip-AVC, Mvo

salma3

47 | 3

2.18 ГБ

В этой теме нет новых непрочитанных сообщений. Зона мертвых / Zone of the Dead [ужасы, боевик, 2009] HDRip-AVC, Mvo

salma3

0 | 11

745.88 МБ

В этой теме нет новых непрочитанных сообщений. Зона мертвых / Zone of the Dead [ужасы, боевик, 2009] BDRip 1080p, Mvo

salma3

68 | 19

8.28 ГБ

В этой теме нет новых непрочитанных сообщений. Опасная зона / Disaster Zone: Volcano in New York [фантастика, боевик, 2006] DVDRip, Mvo

salma3

15 | 3

1.37 ГБ


Начать новую тему Ответить на тему  [ 1 сообщение ] 




Для Мосгорсуда, Роскомнадзора и рекламодателей:: mosgorsud-torrent[собачка]yandex.ru