Торрент файл
скачать торрент магнет ссылка Добавлен: 10 апр 2017, 12:38
Размер: 5.25 ГБ
Сидеров: 122
Личеров: 26
Статус: (salma3)
Автор

СообщениеДобавлено: 10 апр 2017, 12:38 

Не в сети
Супермодератор
Аватара пользователя
Дата регистрации:
15 фев 2012, 16:44
Возраст: 28
Спасибо: 7199 / 2147
Сообщения: 64757
Страна: Украина
Режиссер: Роман Барабаш
Жанр: мелодрама
Продолжительность: 4 x ~ 00:50:00
Год выпуска: 2016

В ролях: Ольга Павловец, Илья Алексеев, Артём Позняк, Алиса Лукшина, Константин Чернокрылюк, Денис Роднянский, Стася Егорова, Вера Кобзарь, Александр Попов (IV), Юрий Гребельник, Вероника Лукьяненко, Ольга Радчук, Дмитрий Базай, Ирина Новак

Описание:
Бывают ли счастливые семьи? Марина уверенна, что да. Ведь она уже много лет абсолютно счастлива в браке. У нее есть любимый муж и двое замечательных детей. Но однажды Марина узнает, что ее обожаемый Вадим завел любовницу. Благополучие семьи, ради которого она жила все эти годы, рушится как карточный домик. Муж уходит к любовнице, дети обвиняют в развале семьи мать, начинают влипать в неприятности. Когда Вадим возвращается с поджатым хвостом, Марина ради детей, скрепя сердцем, соглашается восстановить семью. Но правильно ли она поступает, снова жертвуя собой? Этот вопрос Марине задает Андрей, мужчина, который в трудное для нее время успел стать единственным и незаменимым. Что она ответит? Хватит ли у тридцатипятилетней женщины смелости изменить свою судьбу?



[Формат: HDTVRip 720p
Видео: 1280х720 (16:9), 25 fps, AVC MPEG-4 (x264), ~ 3500 kbps , 0.152 bit/pixel
Аудио: 48 kHz, AC3, 2/0 (L,R) ch, ~192 kbps

Общее
Уникальный идентификатор : 3039885149362064441483100612469091320 (0x24975E8CFA42A1C0995206382426BF8)
Полное имя : C:\Prosti.2016.HDTRip.(720p).\Prosti.(01.seriya.iz.04).2016.HDTRip.(720p).mkv
Формат : Matroska
Версия формата : Version 2
Размер файла : 1,29 Гбайт
Продолжительность : 50 м. 1 с.
Общий поток : 3695 Кбит/сек
Программа кодирования : Lavf54.63.104
Библиотека кодирования : Lavf54.63.104

Видео
Идентификатор : 1
Формат : AVC
Формат/Информация : Advanced Video Codec
Профиль формата :
Параметр CABAC формата : Да
Параметр ReFrames формата : 9 кадров
Идентификатор кодека : V_MPEG4/ISO/AVC
Продолжительность : 50 м. 1 с.
Битрейт : 3500 Кбит/сек
Ширина : 1280 пикселей
Высота : 720 пикселей
Соотношение сторон : 16:9
Режим частоты кадров : Постоянный
Частота кадров : 25,000 кадров/сек
Цветовое пространство : YUV
Субдискретизация насыщенности : 4:2:0
Битовая глубина : 8 бит
Тип развёртки : Прогрессивная
Бит/(Пиксели*Кадры) : 0.152
Размер потока : 1,20 Гбайт (93%)
Default : Нет
Forced : Нет
Цветовой диапазон : Limited
Основные цвета : BT.709
Характеристики трансфера : BT.709
Коэффициенты матрицы : BT.709

Аудио
Идентификатор : 2
Формат : AC-3
Формат/Информация : Audio Coding 3
Параметр Endianness формата : Big
Идентификатор кодека : A_AC3
Продолжительность : 50 м. 1 с.
Вид битрейта : Постоянный
Битрейт : 192 Кбит/сек
Каналы : 2 канала
Расположение каналов : Front: L R
Частота : 48,0 КГц
Частота кадров : 31,250 кадров/сек (1536 spf)
Битовая глубина : 16 бит
Метод сжатия : С потерями
Размер потока : 68,7 Мбайт (5%)
Язык : Russian
ServiceKind/String : Complete Main
Default : Да
Forced : Нет




_________________
Проголосуй за трекер Открытый торрент трекер - RUS-MEDIA.ORG

Проголосуй Открытый торрент трекер - RUS-MEDIA.ORG


Вернуться к началу
 Профиль Отправить личное сообщение  
 
   Похожие торренты   Автор   Торрент   Размер 
В этой теме нет новых непрочитанных сообщений. Прости (1-4 серии из 4) [мелодрама, 2016] HDTVRip-AVC

salma3

196 | 59

2.54 ГБ

В этой теме нет новых непрочитанных сообщений. Она сбила летчика (1-2 серии из 2) [мелодрама, 2016] HDTVRip 720p

salma3

99 | 16

4.61 ГБ

В этой теме нет новых непрочитанных сообщений. Деревенский роман [1-16 серии из 16] [Мелодрама, 2016] HDTVRip 720p

Dracon

45 | 26

25.14 ГБ

В этой теме нет новых непрочитанных сообщений. Прости [01-04 из 04] [Мелодрама, 2016] SATRip-AVC

marya111

13 | 0

2.26 ГБ

В этой теме нет новых непрочитанных сообщений. Второе дыхание (1-2 серии из 2) [мелодрама, детектив, 2016] HDTVRip 720p

salma3

118 | 13

4.72 ГБ

В этой теме нет новых непрочитанных сообщений. Прости за любовь / Perdona si te llamo amor (Хоакин Льямас) [Мелодрама, 2014] BDRip 720p, Dub [iTunes]

Dracon

0 | 0

6.97 ГБ

В этой теме нет новых непрочитанных сообщений. Тёща-командир (1-2 серии из 2) [мелодрама, 2016] HDTVRip-AVC

salma3

417 | 152

2.78 ГБ


Начать новую тему Ответить на тему  [ 1 сообщение ] 




Для Мосгорсуда, Роскомнадзора и рекламодателей:: mosgorsud-torrent[собачка]yandex.ru
cron