Торрент файл
скачать торрент магнет ссылка Добавлен: 02 апр 2017, 12:59
Размер: 2.22 ГБ
Сидеров: 330
Личеров: 70
Статус: (salma3)
Автор

СообщениеДобавлено: 02 апр 2017, 12:59 

Не в сети
Супермодератор
Аватара пользователя
Дата регистрации:
15 фев 2012, 16:44
Возраст: 29
Спасибо: 7328 / 2147
Сообщения: 73373
Страна: Россия, Украина
Режиссер: Денис Елеонский
Жанр: мелодрама, детектив
Продолжительность: 4 x ~ 00:45:00
Год выпуска: 2017

В ролях: Ирина Розанова, Анна Миклош, Алексей Морозов, Артур Ваха, Александр Игнатуша, Никита Брусницын, Владимир Ямненко, Нина Набока, Наталья Кленина, Игорь Славинский, Александр Пожарский

Описание:
Спустя неделю после трагической гибели Анатолия Ивановича его сын Сергей переживает новый шок. Он получает письмо от матери, которую все считали давно умершей. Мать рассказывает Сергею, что его отец бросил её, безнадежно больную туберкулёзом, почти тридцать лет назад. Однако она выжила, за долгие годы испытала много невзгод и вот теперь решила найти сына. Сергей счастлив. Он привозит мать в свой дом. Но у нее почему-то сразу не складываются отношения с невесткой. Жена Сергея не доверяет Валентине, ей кажется, что за появлением этой женщины кроется что-то странное. Ольга пытается выяснить, что произошло в семье Коростылёвых тридцать лет назад. Она едет в город, где прошло детство Сергея. Правда, которую она постепенно открывает, оказывается настоящей бочкой с динамитом. Ольга понимает, что ей надо срочно спасать свою семью. Вот только удастся ли ей выбраться из этого города живой?



Формат: WEB-DLRip-AVC
Видео: 1024x576 (16:9), 25 fps, AVC MPEG-4 (x264), , ~ 1600 kbps avg, 0.109 bit/pixel
Аудио: 44 kHz, AC3, 2/0 (L,R) ch, ~192 kbps

Общее
Уникальный идентификатор : 230677716524387133999950944844226669767 (0xAD8AE984591039408B990B0D4C7AACC7)
Полное имя : C:\Zabytaja.zenchina.(2017).WEB-DLRip.AVC.\01.Zabytaja.zenchina.(2017).WEB-DLRip.(AVC).mkv
Формат : Matroska
Версия формата : Version 2
Размер файла : 562 Мбайт
Продолжительность : 43 м. 51 с.
Общий поток : 1793 Кбит/сек
Дата кодирования : UTC 2017-04-01 19:51:08
Программа кодирования : mkvmerge v7.8.0 ('River Man') 32bit built on Apr 3 2015 12:11:22
Библиотека кодирования : libebml v1.3.1 + libmatroska v1.4.2

Видео
Идентификатор : 1
Формат : AVC
Формат/Информация : Advanced Video Codec
Профиль формата :
Параметр CABAC формата : Да
Параметр ReFrames формата : 9 кадров
Идентификатор кодека : V_MPEG4/ISO/AVC
Продолжительность : 43 м. 51 с.
Битрейт : 1600 Кбит/сек
Ширина : 1024 пикселя
Высота : 576 пикселей
Соотношение сторон : 16:9
Режим частоты кадров : Постоянный
Частота кадров : 25,000 кадров/сек
Цветовое пространство : YUV
Субдискретизация насыщенности : 4:2:0
Битовая глубина : 8 бит
Тип развёртки : Прогрессивная
Бит/(Пиксели*Кадры) : 0.109
Размер потока : 491 Мбайт (87%)
Библиотека кодирования : x264 core 146 r2538 121396c
Настройки программы : cabac=1 / ref=9 / deblock=1:-2:-1 / analyse=0x3:0x113 / me=umh / subme=9 / psy=1 / psy_rd=1.00:0.15 / mixed_ref=1 / me_range=32 / chroma_me=1 / trellis=2 / 8x8dct=1 / cqm=0 / deadzone=21,11 / fast_pskip=0 / chroma_qp_offset=-3 / threads=6 / lookahead_threads=1 / sliced_threads=0 / nr=0 / decimate=1 / interlaced=0 / bluray_compat=0 / constrained_intra=0 / bframes=9 / b_pyramid=2 / b_adapt=2 / b_bias=0 / direct=1 / weightb=1 / open_gop=0 / weightp=2 / keyint=250 / keyint_min=25 / scenecut=40 / intra_refresh=0 / rc_lookahead=50 / rc=2pass / mbtree=0 / bitrate=1600 / ratetol=1.0 / qcomp=0.60 / qpmin=0 / qpmax=69 / qpstep=4 / cplxblur=20.0 / qblur=0.5 / vbv_maxrate=14000 / vbv_bufsize=14000 / nal_hrd=none / filler=0 / ip_ratio=1.40 / pb_ratio=1.30 / aq=2:1.00
Default : Да
Forced : Нет
Цветовой диапазон : Limited
Основные цвета : BT.709
Характеристики трансфера : BT.709
Коэффициенты матрицы : BT.709

Аудио
Идентификатор : 2
Формат : AC-3
Формат/Информация : Audio Coding 3
Параметр Endianness формата : Big
Идентификатор кодека : A_AC3
Продолжительность : 43 м. 51 с.
Вид битрейта : Постоянный
Битрейт : 192 Кбит/сек
Каналы : 2 канала
Расположение каналов : Front: L R
Частота : 44,1 КГц
Частота кадров : 28,711 кадров/сек (1536 spf)
Битовая глубина : 16 бит
Метод сжатия : С потерями
Размер потока : 60,2 Мбайт (11%)
ServiceKind/String : Complete Main
Default : Да
Forced : Нет




_________________
Проголосуй за трекер Открытый торрент трекер - RUS-MEDIA.ORG

Проголосуй Открытый торрент трекер - RUS-MEDIA.ORG


Вернуться к началу
 Профиль Отправить личное сообщение  
 
   Похожие торренты   Автор   Торрент   Размер 
В этой теме нет новых непрочитанных сообщений. Забытая женщина (1-4 серии из 4) [мелодрама, детектив, 2017] WEB-DLRip

salma3

732 | 136

2.15 ГБ

В этой теме нет новых непрочитанных сообщений. Женщина в беде (3 сезон: 1-4 серии из 4) [детектив, мелодрама, 2017] SATRip

salma3

283 | 36

2.15 ГБ

В этой теме нет новых непрочитанных сообщений. Садовое кольцо (1-11 серии из 12) [детектив, мелодрама, 2017] WEB-DLRip

salma3

0 | 0

6.93 ГБ

В этой теме нет новых непрочитанных сообщений. Невозможная женщина [01-02 из 02] [Мелодрама, 2018] WEB-DLRip

salma3

0 | 0

2.74 ГБ

В этой теме нет новых непрочитанных сообщений. Невозможная женщина [01-02 из 02] [Мелодрама, 2018] WEB-DLRip

salma3

12 | 24

1.46 ГБ

В этой теме нет новых непрочитанных сообщений. Женщина с лилиями [Мелодрама, 2016] WEB-DLRip-AVC

salma3

567 | 85

1.37 ГБ

В этой теме нет новых непрочитанных сообщений. Женщина с лилиями [Мелодрама, 2016] WEB-DLRip

salma3

1032 | 161

1.37 ГБ


Начать новую тему Ответить на тему  [ 1 сообщение ] 




Для Мосгорсуда, Роскомнадзора и рекламодателей:: mosgorsud-torrent[собачка]yandex.ru
cron