Торрент файл
скачать торрент магнет ссылка Добавлен: 31 мар 2017, 02:38
Размер: 21.06 ГБ
Сидеров: 15
Личеров: 23
Автор

СообщениеДобавлено: 31 мар 2017, 02:38 

Не в сети
Супермодератор
Аватара пользователя
Дата регистрации:
15 фев 2012, 16:44
Возраст: 28
Спасибо: 6665 / 2146
Сообщения: 46082
Год выпуска: 2017
Жанр: детектив, драма, криминал
Режиссер: Игорь Ромащенко, Илья Шеховцов, Игорь Михайлусь, Михаил Богдасаров, Игорь Твердохлебов

В ролях: Николай Сердцев, Станислав Повольнов, Дмитрий Соловьёв (II), Павел Демьянов, Максим Дримлинг, Ирина Минеева, Татьяна Храмова (II), Лариса Резникова, Егор Вадов, Александр Дуда, Екатерина Буйлова, Ирина Шеянова, Артём Федотов, Антон Савватимов, Сергей Букреев, Вилен Бабичев, Владимир Чуприков, Николай Зазуля, Евгения Ахременко

Описание:
Следственно-аналитическое управление САУ возглавляет полковник Андрей Громов. Сотрудники управления занимаются розыском преступников и криминалистической экспертизой. Они изучают улики, строят доказательную базу, опрашивают свидетелей и проводят очные ставки в высокотехнологичном офисе, оборудованном по последнему слову техники. В их распоряжении допросные комнаты, камеры заключения, научная лаборатория, а также сканеры, тепловизоры, датчики движения, аппараты для изучения психофизического состояния и новейшие детекторы лжи. Агенты могут обнаружить на месте преступления не только отпечатки пальцев, но и следы электронных устройств, которые находились в момент убийства на этой территории. В этом сотрудникам САУ помогает передвижная лаборатория «Сканер», имеющая доступ к сотовым вышкам.



Страна: Россия
Продолжительность: 18 x ~ 00:45:00
Перевод: Не требуется

Формат: HDTVRip 720p
Видео: 1280х720 (16:9), 25 fps, AVC MPEG-4 (x264), ~ 3500 kbps , 0.152 bit/pixel
Аудио: 48 kHz, AC3, 2 ch, ~ 192 kbps avg

Общее
Уникальный идентификатор : 173945197732771655632649986615410458635 (0x82DCA06246F3942D86A460FC658C800B)
Полное имя : C:\Svideteli.2017.HDTVRip.(720p).\Svideteli.(01.seriya).2017.HDTVRip.(720p).mkv
Формат : Matroska
Версия формата : Version 4 / Version 2
Размер файла : 1,13 Гбайт
Продолжительность : 43 м. 45 с.
Общий поток : 3694 Кбит/сек
Дата кодирования : UTC 2017-03-20 22:32:35
Программа кодирования : mkvmerge v7.8.0 ('River Man') 32bit built on Apr 3 2015 12:11:22
Библиотека кодирования : libebml v1.3.1 + libmatroska v1.4.2

Видео
Идентификатор : 1
Формат : AVC
Формат/Информация : Advanced Video Codec
Профиль формата :
Параметр CABAC формата : Да
Параметр ReFrames формата : 9 кадров
Идентификатор кодека : V_MPEG4/ISO/AVC
Продолжительность : 43 м. 45 с.
Битрейт : 3500 Кбит/сек
Ширина : 1280 пикселей
Высота : 720 пикселей
Соотношение сторон : 16:9
Режим частоты кадров : Постоянный
Частота кадров : 25,000 кадров/сек
Цветовое пространство : YUV
Субдискретизация насыщенности : 4:2:0
Битовая глубина : 8 бит
Тип развёртки : Прогрессивная
Бит/(Пиксели*Кадры) : 0.152
Размер потока : 1,05 Гбайт (93%)
Библиотека кодирования : x264 core 146 r2538 121396c
Настройки программы : cabac=1 / ref=9 / deblock=1:-3:-3 / analyse=0x3:0x113 / me=umh / subme=11 / psy=1 / psy_rd=1.00:0.20 / mixed_ref=1 / me_range=32 / chroma_me=1 / trellis=2 / 8x8dct=1 / cqm=0 / deadzone=21,11 / fast_pskip=1 / chroma_qp_offset=-3 / threads=4 / lookahead_threads=1 / sliced_threads=0 / nr=0 / decimate=0 / interlaced=0 / bluray_compat=0 / constrained_intra=0 / bframes=12 / b_pyramid=2 / b_adapt=2 / b_bias=0 / direct=3 / weightb=1 / open_gop=0 / weightp=2 / keyint=250 / keyint_min=25 / scenecut=40 / intra_refresh=0 / rc_lookahead=60 / rc=2pass / mbtree=1 / bitrate=3500 / ratetol=1.0 / qcomp=0.60 / qpmin=0 / qpmax=69 / qpstep=4 / cplxblur=20.0 / qblur=0.5 / vbv_maxrate=14000 / vbv_bufsize=14000 / nal_hrd=none / filler=0 / ip_ratio=1.40 / aq=3:1.00
Default : Нет
Forced : Нет
Цветовой диапазон : Limited
Основные цвета : BT.709
Характеристики трансфера : BT.709
Коэффициенты матрицы : BT.709

Аудио
Идентификатор : 2
Формат : AC-3
Формат/Информация : Audio Coding 3
Параметр Endianness формата : Big
Идентификатор кодека : A_AC3
Продолжительность : 43 м. 45 с.
Вид битрейта : Постоянный
Битрейт : 192 Кбит/сек
Каналы : 2 канала
Расположение каналов : Front: L R
Частота : 48,0 КГц
Частота кадров : 31,250 кадров/сек (1536 spf)
Битовая глубина : 16 бит
Метод сжатия : С потерями
Размер потока : 60,1 Мбайт (5%)
Язык : Russian
ServiceKind/String : Complete Main
Default : Да
Forced : Да




_________________
Проголосуй за трекер Открытый торрент трекер - RUS-MEDIA.ORG

Проголосуй Открытый торрент трекер - RUS-MEDIA.ORG



реклама партнёра


Вернуться к началу
 Профиль Отправить личное сообщение  
 
   Похожие торренты   Автор   Торрент   Размер 
В этой теме нет новых непрочитанных сообщений. Свидетели (1-20 серии из 20) [детектив, драма, криминал, 2017] SATRip

salma3

479 | 431

12.11 ГБ

В этой теме нет новых непрочитанных сообщений. Мертв на 99% / DEAD AT 99% (Серии 1-10 из 10) ( Степан Коршунов) [2017, Драма, боевик, детектив, криминал , HDTVRip 1080i] [DD5.1]

Враг Нароода

0 | 0

18.85 ГБ

В этой теме нет новых непрочитанных сообщений. Свидетели [01-20 из 20] [детектив, криминал, 2016] SATRip-AVC

salma3

0 | 0

10.36 ГБ

В этой теме нет новых непрочитанных сообщений. Кости / Bones [12x01-05 из 12] (Драма, мелодрама, комедия, криминал, детектив, 2017) HDTVRip 720p | Sunshine Studio

marya111

57 | 343

4.19 ГБ

В этой теме нет новых непрочитанных сообщений. Хорошее поведение / Good Behavior [02х08 из 13] [Триллер, драма, криминал, детектив, 2017] HDTVRip 720p, Dvo [Sunshine Studio]

salma3

0 | 0

6.59 ГБ

В этой теме нет новых непрочитанных сообщений. Беглец (1-2 серии из 2) [драма, криминал, 2016] HDTVRip 720p

salma3

227 | 82

2.54 ГБ

В этой теме нет новых непрочитанных сообщений. Чужой дед (1-2 серии из 2) [драма, криминал, 2017] HDTVRip

salma3

307 | 41

1.17 ГБ


Начать новую тему Ответить на тему  [ 1 сообщение ] 




Для Мосгорсуда, Роскомнадзора и рекламодателей:: mosgorsud-torrent[собачка]yandex.ru