Торрент файл
скачать торрент магнет ссылка Добавлен: 24 мар 2017, 13:38
Размер: 4.36 ГБ
Сидеров: 2199
Личеров: 1068
Статус: (salma3)
Автор

СообщениеДобавлено: 16 мар 2017, 14:57 

Не в сети
Супермодератор
Аватара пользователя
Дата регистрации:
15 фев 2012, 16:44
Возраст: 29
Спасибо: 7332 / 2147
Сообщения: 73912
Перевод: Не требуется, cубтитры: отсутствуют
Страна: Россия
Режиссер: Давид Ткебучава
Жанр: детектив, шпионский фильм
Всего серий: 16
Продолжительность: 6 x ~ 00:52:00
Год выпуска: 2016

В ролях: Сергей Безруков, Мария Луговая, Евгений Стычкин, Артём Ткаченко, Илья Любимов, Наташа Швец (II), Дмитрий Поднозов, Петар Зекавица, Евгений Карпов, Иван Макаревич, Олег Гераськин,

Описание:
1937 год. Максим Ливитин, в прошлом офицер русской военной разведки, а ныне успешный финский кинорежиссер, волею случая оказывается втянутым в противостояние немецкой, японской, британской и советской спецслужб. Ливитин оказывается в эпицентре схватки за научные разработки уникального сверхоружия. Ливитин понимает, что это открытие не должно увидеть свет, иначе мир ждут страшные времена. Ливитин вспоминает прошлые навыки и, практически, в одиночку вступает в противостояние с ведущими спецслужбами мира. В этой опасной игре ему помогает только любимая женщина и преданный друг.



Формат: HDTVRip
Видео: 720x304 (2.35:1), 25 fps, XviD MPEG-4 ~1430 kbps avg, 0.261 bit/pixel
Аудио: 48 kHz, АС3, 2 ch, (Front: L R) ~192.00 kbps avg

Общее
Полное имя : C:\Users\Downloads\Последние документальные\Ochota.na.djavola.2016.HDTVRip.Files-x\01.Ochota.na.djavola.2016.HDTVRip.Files-x.avi
Формат : AVI
Формат/Информация : Audio Video Interleave
Размер файла : 601 Мбайт
Продолжительность : 51 м.
Общий поток : 1632 Кбит/сек
Программа кодирования : VirtualDubMod 1.5.10.3 | www.virtualdub-fr.org || (build 2550/release)
Библиотека кодирования : VirtualDubMod build 2550/release

Видео
Идентификатор : 0
Формат : MPEG-4 Visual
Профиль формата : Advanced Simple@L5
Параметр BVOP формата : 1
Параметр QPel формата : Нет
Параметр GMC формата : Без точки перехода
Параметр матрицы формата : Выборочная
Идентификатор кодека : XVID
Идентификатор кодека/Подсказка : XviD
Продолжительность : 51 м.
Битрейт : 1430 Кбит/сек
Ширина : 720 пикселей
Высота : 304 пикселя
Соотношение сторон : 2,35:1
Частота кадров : 25,000 кадров/сек
Цветовое пространство : YUV
Субдискретизация насыщенности : 4:2:0
Битовая глубина : 8 бит
Тип развёртки : Прогрессивная
Метод сжатия : С потерями
Бит/(Пиксели*Кадры) : 0.261
Размер потока : 526 Мбайт (88%)
Библиотека кодирования : XviD 73

Аудио
Идентификатор : 1
Формат : AC-3
Формат/Информация : Audio Coding 3
Расширение режима : CM (complete main)
Параметр Endianness формата : Big
Идентификатор кодека : 2000
Продолжительность : 51 м.
Вид битрейта : Постоянный
Битрейт : 192 Кбит/сек
Каналы : 2 канала
Расположение каналов : Front: L R
Частота : 48,0 КГц
Битовая глубина : 16 бит
Метод сжатия : С потерями
Размер потока : 70,7 Мбайт (12%)
Выравнивание : Разделение по промежуткам
Продолжительность промежутка : 40 мс. (1,00 видеокадр)
Время предзагрузки промежутка : 500 мс.

Внимание! Раздача ведётся путём добавления новых серий; при каждом добавлении создаётся новый торрент. Чтобы начать докачку новой серии, пользователям необходимо сделать следующее:
(1) остановить скачивание,
(2) удалить старый торрент у себя из клиента (старые серии удалять не надо),
(3) скачать новый торрент и запустить его у себя в клиенте вместо старого, при этом указать клиенту путь в старую папку куда и должно происходить скачивание новых серий.

Ваш клиент при этом должен произвести хеширование (проверку) старой папки (если не производит сам - помогите ему сделать это), и будет докачивать только те серии которых у вас ещё нет. Старые серии при этом не удаляются, а продолжают раздаваться!

Eсли вы уже удалили старые серии, то предотвратить повторную закачку старых серий можно, отжав галочку в соответсвующих местах при запуске нового торрента. По возможности, желательно не удалять старые серии как можно дольше чтобы релизёр не столько продолжал раздавать старые серии, а смог сконцентрироваться на новых.




_________________
Проголосуй за трекер Открытый торрент трекер - RUS-MEDIA.ORG

Проголосуй Открытый торрент трекер - RUS-MEDIA.ORG


Вернуться к началу
 Профиль Отправить личное сообщение  
 
   Похожие торренты   Автор   Торрент   Размер 
В этой теме нет новых непрочитанных сообщений. Охота на дьявола / Hunt For The Devil (Серии 1-16 из 16) ( Давид Ткебучава) [2017, Детектив, шпионский фильм , HDTVRip 1080i] [DD5.1]

Враг Нароода

0 | 0

36.91 ГБ

В этой теме нет новых непрочитанных сообщений. Охота на дьявола / Формула профессора Филиппова [01-16 из 16] [детектив, триллер, 2016] HDTVRip 720p

salma3

576 | 537

19.99 ГБ

В этой теме нет новых непрочитанных сообщений. Охота на дьявола [01-16 из 16] [детектив, 2017] SATRip-AVC

salma3

516 | 301

9.22 ГБ

В этой теме нет новых непрочитанных сообщений. Охота на дьявола [01-16 из 16] [Детектив, 2017] HDTV 1080i

salma3

404 | 1019

39.2 ГБ

В этой теме нет новых непрочитанных сообщений. Адаптация [01-02 из 17] ( Комедия, шпионский фильм, 2017) SATRip от Files-x

marya111

841 | 59

612.43 МБ

В этой теме нет новых непрочитанных сообщений. Изгоняющий дьявола / The Exorcist [S01] [ужасы, триллер, 2016] HDTVRip, Dvo [NEON Studio]

salma3

43 | 79

4.62 ГБ

В этой теме нет новых непрочитанных сообщений. Группа Ромео / The Romeo Section [S02] [драма, шпионский, 2016] WEB-DLRip, Mvo [ViruseProject]

salma3

41 | 24

6.44 ГБ


СообщениеДобавлено: 24 мар 2017, 13:33 

Не в сети
Супермодератор
Аватара пользователя
Дата регистрации:
15 фев 2012, 16:44
Возраст: 29
Спасибо: 7332 / 2147
Сообщения: 73912
salma3 писал(а):
Re: Охота на дьявола [01-16 из 16] [детектив, шпионский фильм, 2016] HDTVRip

_________________
Проголосуй за трекер Открытый торрент трекер - RUS-MEDIA.ORG

Проголосуй Открытый торрент трекер - RUS-MEDIA.ORG


Вернуться к началу
 Профиль Отправить личное сообщение  
 
Начать новую тему Ответить на тему  [ Сообщений: 2 ] 




Для Мосгорсуда, Роскомнадзора и рекламодателей:: mosgorsud-torrent[собачка]yandex.ru
cron