Торрент файл
скачать торрент магнет ссылка Добавлен: 01 апр 2017, 12:05
Размер: 6.04 ГБ
Сидеров: 0
Личеров: 0
Статус: (salma3)
Автор

СообщениеДобавлено: 16 мар 2017, 14:55 

Не в сети
Супермодератор
Аватара пользователя
Дата регистрации:
15 фев 2012, 16:44
Возраст: 28
Спасибо: 7061 / 2147
Сообщения: 59181
Перевод: Не требуется, cубтитры: отсутствуют
Страна: Россия
Режиссер: Роман Фокин, Антон Маслов
Жанр: комедия
Всего серий: 20
Продолжительность: 6 х 00:26:00
Год выпуска: 2017

В ролях: Алексей Бардуков, Илья Глинников, Ирина Старшенбаум, Елена Ветрова, Виктория Заболотная, Александр Робак, Николай Козак, Алексей Гришин, Александр Андриенко, Светлана Костюкова, Александр Константинов, Ирина Темичева

Описание: История трех молодых людей, волей случая оказавшихся вместе. И в очень хорошем месте – огромной квартире в самом центре Москвы с выходом на крышу и головокружительным видом на город. Герои решают открыть в квартире хостел – бюджетную гостиницу. У них есть все, чтобы преуспеть – организаторские способности одного, дизайнерский талант другого и, разумеется, сама квартира. Что из этого получится? Знают только они, ну и сварливый сосед – бывший прапорщик – который изо всех сил будет мешать этой бизнес-идее состояться. Жизнь современной Москвы глазами 20-летних и с высоты птичьего полета.



Формат: WEB-DLRip-AVC
Видео: 1024x576 (16:9), 25 fps, AVC MPEG-4 (x264), , ~ 2000 kbps avg, 0.136 bit/pixel
Аудио: 48 kHz, AC3, 2/0 (L,R) ch, ~192 kbps

Общее
Уникальный идентификатор : 193280919472522850874183308189774772782 (0x91688D118D7DDDD084B8D8EC4499FA2E)
Полное имя : D:Krysha.Mira.s02.2017.WEB-DLRip(AVC).Krysha.Mira.s02.e01.2017.WEB-DLRip(AVC).mkv
Формат : Matroska
Версия формата : Version 2
Размер файла : 409 Мбайт
Продолжительность : 26 м. 12 с.
Общий поток : 2183 Кбит/сек
Дата кодирования : UTC 2017-03-14 17:24:09
Программа кодирования : mkvmerge v7.8.0 ('River Man') 32bit built on Apr 3 2015 12:11:22
Библиотека кодирования : libebml v1.3.1 + libmatroska v1.4.2

Видео
Идентификатор : 1
Формат : AVC
Формат/Информация : Advanced Video Codec
Профиль формата :
Параметр CABAC формата : Да
Параметр ReFrames формата : 10 кадров
Идентификатор кодека : V_MPEG4/ISO/AVC
Продолжительность : 26 м. 12 с.
Битрейт : 2000 Кбит/сек
Ширина : 1024 пикселя
Высота : 576 пикселей
Соотношение сторон : 16:9
Режим частоты кадров : Постоянный
Частота кадров : 25,000 кадров/сек
Цветовое пространство : YUV
Субдискретизация насыщенности : 4:2:0
Битовая глубина : 8 бит
Тип развёртки : Прогрессивная
Бит/(Пиксели*Кадры) : 0.136
Размер потока : 365 Мбайт (89%)
Библиотека кодирования : x264 core 146 r2538 121396c
Настройки программы : cabac=1 / ref=10 / deblock=1:-3:-3 / analyse=0x3:0x133 / me=umh / subme=10 / psy=1 / psy_rd=0.00:0.03 / mixed_ref=1 / me_range=48 / chroma_me=1 / trellis=2 / 8x8dct=1 / cqm=0 / deadzone=21,11 / fast_pskip=0 / chroma_qp_offset=-1 / threads=6 / lookahead_threads=1 / sliced_threads=0 / nr=0 / decimate=0 / interlaced=0 / bluray_compat=0 / constrained_intra=0 / bframes=10 / b_pyramid=2 / b_adapt=2 / b_bias=0 / direct=3 / weightb=1 / open_gop=0 / weightp=2 / keyint=250 / keyint_min=25 / scenecut=40 / intra_refresh=0 / rc_lookahead=40 / rc=2pass / mbtree=0 / bitrate=2000 / ratetol=1.0 / qcomp=0.60 / qpmin=0 / qpmax=69 / qpstep=4 / cplxblur=20.0 / qblur=0.5 / vbv_maxrate=50000 / vbv_bufsize=62500 / nal_hrd=none / filler=0 / ip_ratio=1.40 / pb_ratio=1.30 / aq=1:1.00
Default : Да
Forced : Нет

Аудио
Идентификатор : 2
Формат : AC-3
Формат/Информация : Audio Coding 3
Расширение режима : CM (complete main)
Параметр Endianness формата : Big
Идентификатор кодека : A_AC3
Продолжительность : 26 м. 12 с.
Вид битрейта : Постоянный
Битрейт : 192 Кбит/сек
Каналы : 2 канала
Расположение каналов : Front: L R
Частота : 48,0 КГц
Частота кадров : 31,250 кадров/сек (1536 spf)
Битовая глубина : 16 бит
Метод сжатия : С потерями
Размер потока : 36,0 Мбайт (9%)
Default : Да
Forced : Нет




_________________
Проголосуй за трекер Открытый торрент трекер - RUS-MEDIA.ORG

Проголосуй Открытый торрент трекер - RUS-MEDIA.ORG


Вернуться к началу
 Профиль Отправить личное сообщение  
 
   Похожие торренты   Автор   Торрент   Размер 
В этой теме нет новых непрочитанных сообщений. Крыша мира [S02] [Комедия, мелодрама, 2017] WEB-DLRip

salma3

48 | 58

5.87 ГБ

В этой теме нет новых непрочитанных сообщений. Крыша мира [S02] [Комедия, мелодрама, 2017] WEB-DL 1080p

salma3

195 | 0

17.63 ГБ

В этой теме нет новых непрочитанных сообщений. Крыша поехала / Sweet 'n Short [комедия, 1991] DVDRip, Dvo

salma3

77 | 33

1.46 ГБ

В этой теме нет новых непрочитанных сообщений. На дне мира / Bottom of the World [триллер, драма, детектив, 2017] WEB-DLRip, Mvo

salma3

1433 | 317

1.37 ГБ

В этой теме нет новых непрочитанных сообщений. Сразу после сотворения мира [01-04 из 04] [детектив, 2013] WEB-DLRip 720p

salma3

392 | 115

3.19 ГБ

В этой теме нет новых непрочитанных сообщений. Хоккей. Чемпионат мира 2017. Все голы турнира [05.05-21.05] (2017) HDTVRip 720p

salma3

4 | 3

473.03 МБ

В этой теме нет новых непрочитанных сообщений. Хоккей. Чемпионат мира 2017. Группа А. 3 тур. США - Швеция [Матч! ТВ HD] [08.05] (2017) HDTVRip

salma3

50 | 26

1.67 ГБ


СообщениеДобавлено: 01 апр 2017, 12:05 

Не в сети
Супермодератор
Аватара пользователя
Дата регистрации:
15 фев 2012, 16:44
Возраст: 28
Спасибо: 7061 / 2147
Сообщения: 59181
salma3 писал(а):
Re: Крыша мира [S02] [комедия, 2017] WEB-DLRip-AVC

_________________
Проголосуй за трекер Открытый торрент трекер - RUS-MEDIA.ORG

Проголосуй Открытый торрент трекер - RUS-MEDIA.ORG


Вернуться к началу
 Профиль Отправить личное сообщение  
 
Начать новую тему Ответить на тему  [ Сообщений: 2 ] 




Для Мосгорсуда, Роскомнадзора и рекламодателей:: mosgorsud-torrent[собачка]yandex.ru
cron