Торрент файл
скачать торрент магнет ссылка Добавлен: 12 мар 2017, 17:26
Размер: 2.4 ГБ
Сидеров: 287
Личеров: 70
Автор

СообщениеДобавлено: 12 мар 2017, 17:26 

Не в сети
Супермодератор
Аватара пользователя
Дата регистрации:
15 фев 2012, 16:44
Возраст: 28
Спасибо: 7224 / 2147
Сообщения: 67983
Режиссер: Анатолий Артамонов
Жанр: детектив, мелодрама
Продолжительность: 4 х ~ 00:49:00
Год выпуска: 2016

В ролях: Светлана Антонова, Вячеслав Дробинков, Татьяна Ермилова, Юлия Юрченко, Данила Дунаев, Максим Битюков, Екатерина Молоховская, Александр Армер, Анастасия Савосина, Анвер Ягудин, Мария Ильякова, Вадим Ситников

Описание: Ирина – судья. На работе она безупречна: всегда знает, что говорит закон, и действует соответственно. Дома тоже никаких эксцессов: долгие годы счастливого брака не оставляют шансов ни сомнениям, ни ошибкам. Но в один прекрасный день выясняется, что муж изменяет Ирине. И всё, что казалось незыблемым, летит кувырком. Уже не такими однозначными кажутся дела, которые ведёт судья. Ирина с ужасом обнаруживает, что закон может говорить одно, а сердце – другое… В поисках способа унять боль Ирина решается провести вечер в компании давнего друга Андрея, который много лет назад был в нее влюблён. Но после короткой романтической истории Андрей исчезает. А через некоторое время Ирина, войдя в зал суда, видит его на скамье подсудимых. Андрея обвиняют в убийстве девушки. Время убийства – та ночь, которую Ирина и Андрей провели вместе…



Формат: WEB-DLRip-AVC
Видео: 1024x576 (16:9), 25 fps, AVC MPEG-4 (x264), , ~ 1600 kbps avg, 0.109 bit/pixel
Аудио: 44 kHz, AC3, 2/0 (L,R) ch, ~192 kbps

Общее
Уникальный идентификатор : 196068528173382543927816076755342787446 (0x93816CC9EC5D23158BB9928596250376)
Полное имя : C:Delo.sudji.karelinoj.(2017).WEB-DLRip.(AVC).\01.Delo.sudji.karelinoj.(2017).WEB-DLRip.(AVC).mkv
Формат : Matroska
Версия формата : Version 2
Размер файла : 641 Мбайт
Продолжительность : 49 м. 57 с.
Общий поток : 1792 Кбит/сек
Дата кодирования : UTC 2017-03-11 21:32:16
Программа кодирования : mkvmerge v7.8.0 ('River Man') 32bit built on Apr 3 2015 12:11:22
Библиотека кодирования : libebml v1.3.1 + libmatroska v1.4.2

Видео
Идентификатор : 1
Формат : AVC
Формат/Информация : Advanced Video Codec
Профиль формата :
Параметр CABAC формата : Да
Параметр ReFrames формата : 9 кадров
Идентификатор кодека : V_MPEG4/ISO/AVC
Продолжительность : 49 м. 57 с.
Битрейт : 1600 Кбит/сек
Ширина : 1024 пикселя
Высота : 576 пикселей
Соотношение сторон : 16:9
Режим частоты кадров : Постоянный
Частота кадров : 25,000 кадров/сек
Цветовое пространство : YUV
Субдискретизация насыщенности : 4:2:0
Битовая глубина : 8 бит
Тип развёртки : Прогрессивная
Бит/(Пиксели*Кадры) : 0.109
Размер потока : 559 Мбайт (87%)
Библиотека кодирования : x264 core 146 r2538 121396c
Настройки программы : cabac=1 / ref=9 / deblock=1:-2:-1 / analyse=0x3:0x113 / me=umh / subme=9 / psy=1 / psy_rd=1.00:0.15 / mixed_ref=1 / me_range=32 / chroma_me=1 / trellis=2 / 8x8dct=1 / cqm=0 / deadzone=21,11 / fast_pskip=0 / chroma_qp_offset=-3 / threads=6 / lookahead_threads=1 / sliced_threads=0 / nr=0 / decimate=1 / interlaced=0 / bluray_compat=0 / constrained_intra=0 / bframes=9 / b_pyramid=2 / b_adapt=2 / b_bias=0 / direct=1 / weightb=1 / open_gop=0 / weightp=2 / keyint=250 / keyint_min=25 / scenecut=40 / intra_refresh=0 / rc_lookahead=50 / rc=2pass / mbtree=0 / bitrate=1600 / ratetol=1.0 / qcomp=0.60 / qpmin=0 / qpmax=69 / qpstep=4 / cplxblur=20.0 / qblur=0.5 / vbv_maxrate=14000 / vbv_bufsize=14000 / nal_hrd=none / filler=0 / ip_ratio=1.40 / pb_ratio=1.30 / aq=2:1.00
Default : Да
Forced : Нет
Цветовой диапазон : Limited
Основные цвета : BT.709
Характеристики трансфера : BT.709
Коэффициенты матрицы : BT.709

Аудио
Идентификатор : 2
Формат : AC-3
Формат/Информация : Audio Coding 3
Параметр Endianness формата : Big
Идентификатор кодека : A_AC3
Продолжительность : 49 м. 57 с.
Вид битрейта : Постоянный
Битрейт : 192 Кбит/сек
Каналы : 2 канала
Расположение каналов : Front: L R
Частота : 44,1 КГц
Частота кадров : 28,711 кадров/сек (1536 spf)
Битовая глубина : 16 бит
Метод сжатия : С потерями
Размер потока : 68,6 Мбайт (11%)
ServiceKind/String : Complete Main
Default : Да
Forced : Нет




_________________
Проголосуй за трекер Открытый торрент трекер - RUS-MEDIA.ORG

Проголосуй Открытый торрент трекер - RUS-MEDIA.ORG


Вернуться к началу
 Профиль Отправить личное сообщение  
 
   Похожие торренты   Автор   Торрент   Размер 
В этой теме нет новых непрочитанных сообщений. Дело судьи Карелиной (1-4 серии из 4) [детектив, мелодрама, 2016] WEB-DLRip

salma3

518 | 112

2.34 ГБ

В этой теме нет новых непрочитанных сообщений. Мавр сделал своё дело (1-4 серии из 4) [детектив, драма, криминал, экранизация, 2016] WEB-DLRip

salma3

1951 | 664

2.34 ГБ

В этой теме нет новых непрочитанных сообщений. Нераскрытый талант (1-4 серии из 4) [детектив, мелодрама, 2016] WEB-DLRip

salma3

1553 | 407

2.34 ГБ

В этой теме нет новых непрочитанных сообщений. Замуж после всех (1-4 серии из 4) [мелодрама, детектив, 2016] WEB-DLRip-AVC

salma3

381 | 26

2.35 ГБ

В этой теме нет новых непрочитанных сообщений. Письма из прошлого / Возвращение к себе (1-4 серии из 4) [детектив, мелодрама, 2016] WEB-DLRip-AVC

salma3

283 | 63

2.25 ГБ

В этой теме нет новых непрочитанных сообщений. Мавр сделал своё дело [01-04 из 04] [Детектив, драма, криминал, экранизация, 2016] WEB-DLRip-AVC

salma3

112 | 29

2.45 ГБ

В этой теме нет новых непрочитанных сообщений. Штрафник (1-12 серии из 12) [детектив, 2016] WEB-DLRip

salma3

180 | 157

8.21 ГБ


Начать новую тему Ответить на тему  [ 1 сообщение ] 




Для Мосгорсуда, Роскомнадзора и рекламодателей:: mosgorsud-torrent[собачка]yandex.ru
cron