Торрент файл
скачать торрент магнет ссылка Добавлен: 09 мар 2017, 13:53
Размер: 7.31 ГБ
Сидеров: 189
Личеров: 242
Статус: (salma3)
Автор

СообщениеДобавлено: 09 мар 2017, 13:53 

Не в сети
Супермодератор
Аватара пользователя
Дата регистрации:
15 фев 2012, 16:44
Возраст: 28
Спасибо: 7204 / 2147
Сообщения: 65100
Год выпуска: 2017
Жанр: драма, мелодрама, история, биография
Режиссер: Дмитрий Иосифов

В ролях: Марина Александрова, Владимир Яглыч, Сергей Марин, Павел Табаков, Игорь Скляр, Михаил Горевой, Сергей Колтаков, Леонид Кулагин, Александра Урсуляк, Александр Олешко, Владимир Юматов,

Описание:
Продолжение линии судьбы великой императрицы, начатой в фильме "Екатерина". Первый фильм был посвящен ее пути к престолу и превращению принцессы Ангальт-Цербстской в самодержавную правительницу огромного государства. В новом фильме развернутся дальнейшие события бурных, судьбоносных для России лет. Екатерина Алексеевна царствует уже шестой год. Ей приходится бороться с угрозой войны, в то время как при дворе против нее зреет заговор. С государственными заботами тесно переплелись любовные интриги: за сердце Екатерины сражаются Григорий Орлов, отец ее незаконнорожденного сына, и молодой офицер Григорий Потемкин. Но Екатерина Вторая не стала бы Великой, если бы не нашла в себе силы преодолеть любые испытания…



Страна: Россия
Продолжительность: 12 x ~ 00:48:00
Перевод: Не требуется

Формат: WEB-DLRip-AVC
Видео: 1024x576 (16:9), 25 fps, AVC MPEG-4 (x264), , ~ 1600 kbps avg, 0.109 bit/pixel
Аудио: 44 kHz, АС3, 2/0 (L,R), ~192.00 kbps avg

Общее
Уникальный идентификатор : 192159766414697576735402643277611320493 (0x90909FF47ECC41929774148C0654C4AD)
Полное имя : C:\Екатерина. Взлет.(2017).WEB-DLRip.AVC.\01.Екатерина. Взлет.(2017).WEB-DLRip.(AVC).mkv
Формат : Matroska
Версия формата : Version 2
Размер файла : 578 Мбайт
Продолжительность : 45 м. 5 с.
Общий поток : 1792 Кбит/сек
Дата кодирования : UTC 2017-02-27 21:45:17
Программа кодирования : mkvmerge v7.8.0 ('River Man') 32bit built on Apr 3 2015 12:11:22
Библиотека кодирования : libebml v1.3.1 + libmatroska v1.4.2

Видео
Идентификатор : 1
Формат : AVC
Формат/Информация : Advanced Video Codec
Профиль формата :
Параметр CABAC формата : Да
Параметр ReFrames формата : 9 кадров
Идентификатор кодека : V_MPEG4/ISO/AVC
Продолжительность : 45 м. 5 с.
Битрейт : 1600 Кбит/сек
Ширина : 1024 пикселя
Высота : 576 пикселей
Соотношение сторон : 16:9
Режим частоты кадров : Постоянный
Частота кадров : 25,000 кадров/сек
Цветовое пространство : YUV
Субдискретизация насыщенности : 4:2:0
Битовая глубина : 8 бит
Тип развёртки : Прогрессивная
Бит/(Пиксели*Кадры) : 0.109
Размер потока : 505 Мбайт (87%)
Библиотека кодирования : x264 core 146 r2538 121396c
Настройки программы : cabac=1 / ref=9 / deblock=1:-2:-1 / analyse=0x3:0x113 / me=umh / subme=9 / psy=1 / psy_rd=1.00:0.15 / mixed_ref=1 / me_range=32 / chroma_me=1 / trellis=2 / 8x8dct=1 / cqm=0 / deadzone=21,11 / fast_pskip=0 / chroma_qp_offset=-3 / threads=6 / lookahead_threads=1 / sliced_threads=0 / nr=0 / decimate=1 / interlaced=0 / bluray_compat=0 / constrained_intra=0 / bframes=9 / b_pyramid=2 / b_adapt=2 / b_bias=0 / direct=1 / weightb=1 / open_gop=0 / weightp=2 / keyint=250 / keyint_min=25 / scenecut=40 / intra_refresh=0 / rc_lookahead=50 / rc=2pass / mbtree=0 / bitrate=1600 / ratetol=1.0 / qcomp=0.60 / qpmin=0 / qpmax=69 / qpstep=4 / cplxblur=20.0 / qblur=0.5 / vbv_maxrate=14000 / vbv_bufsize=14000 / nal_hrd=none / filler=0 / ip_ratio=1.40 / pb_ratio=1.30 / aq=2:1.00
Default : Да
Forced : Нет
Цветовой диапазон : Limited
Основные цвета : BT.709
Характеристики трансфера : BT.709
Коэффициенты матрицы : BT.709

Аудио
Идентификатор : 2
Формат : AC-3
Формат/Информация : Audio Coding 3
Расширение режима : CM (complete main)
Параметр Endianness формата : Big
Идентификатор кодека : A_AC3
Продолжительность : 45 м. 5 с.
Вид битрейта : Постоянный
Битрейт : 192 Кбит/сек
Каналы : 2 канала
Расположение каналов : Front: L R
Частота : 44,1 КГц
Частота кадров : 28,711 кадров/сек (1536 spf)
Битовая глубина : 16 бит
Метод сжатия : С потерями
Размер потока : 61,9 Мбайт (11%)
Default : Да
Forced : Нет




_________________
Проголосуй за трекер Открытый торрент трекер - RUS-MEDIA.ORG

Проголосуй Открытый торрент трекер - RUS-MEDIA.ORG


Вернуться к началу
 Профиль Отправить личное сообщение  
 
   Похожие торренты   Автор   Торрент   Размер 
В этой теме нет новых непрочитанных сообщений. Екатерина. Взлет (1-12 серии из 12) [исторический, драма, мелодрама, 2017] SATRip

salma3

663 | 216

8.29 ГБ

В этой теме нет новых непрочитанных сообщений. Екатерина [01-12 из 12] [Драма, мелодрама, история, биография, 2014] WEB-DLRip

salma3

0 | 43

4.36 ГБ

В этой теме нет новых непрочитанных сообщений. Заложники [Драма, триллер, биография, история, 2017] WEB-DLRip [iTunes]

salma3

927 | 275

1.46 ГБ

В этой теме нет новых непрочитанных сообщений. Американская история преступлений / The People v. O.J. Simpson: American Crime Story [1 сезон: 1-2 серия из 10] [Драма, криминал, биография, 2016] WEB-DLRip [NewStudio]

Dracon

77 | 37

1.2 ГБ

В этой теме нет новых непрочитанных сообщений. Непридуманная жизнь (Екатерина) [01-16 из 16] (Фуад Шабанов) [Мелодрама, драма, биография, 2015] HDTVRip

Dracon

281 | 69

8.59 ГБ

В этой теме нет новых непрочитанных сообщений. Двойная сплошная (2 сезон: 1-16 серии из 16) [мелодрама, 2017] WEB-DLRip

salma3

268 | 103

9.31 ГБ

В этой теме нет новых непрочитанных сообщений. Взлет / Rise [S01] [Драма, 2018] WEB-DLRip, Mvo [Jaskier]

salma3

2 | 9

5.02 ГБ


Начать новую тему Ответить на тему  [ 1 сообщение ] 




Для Мосгорсуда, Роскомнадзора и рекламодателей:: mosgorsud-torrent[собачка]yandex.ru
cron