Торрент файл
скачать торрент магнет ссылка Добавлен: 02 мар 2017, 16:36
Размер: 2.71 ГБ
Сидеров: 57
Личеров: 28
Статус: (salma3)
Автор

СообщениеДобавлено: 02 мар 2017, 16:36 

Не в сети
Супермодератор
Аватара пользователя
Дата регистрации:
15 фев 2012, 16:44
Возраст: 28
Спасибо: 6642 / 2146
Сообщения: 45728
Режиссер: Джим Микл, Ник Гомез, Морис Мэрэб
Жанр: Триллер, комедия, драма

Год выпуска: 2016

В ролях: Джеймс Пьюрфой, Майкл Кеннет Уильямс, Джимми Симпсон, Билл Сейдж, Кристина Хендрикс, Поллианна МакИнтош, Келвин Браун, Деджа Ди, Ивэн Гэмбл, Крэнстон Джонсон

Описание:
Сериал расскажет о необычной дружбе двух неудачников — Хэпа Коллинза и Леонарда Пайна. Хэп — белый работяга, который провел свою юность в тюрьме за то, что отказался воевать во Вьетнаме. Пайн — чернокожий открытый гей, ветеран Вьетнама, от которого отвернулась родня из-за его ориентации и проблем с управлением гневом.




Страна: США
Продолжительность: 6 х ~00:45:00
Перевод: Профессиональный (многоголосый, закадровый)IdeaFilm

Формат: WEB-DLRip
Видео: 720x400 (1.80:1), 23.976 fps, XviD MPEG-4 ~1049 kbps avg, 0.15 bit/pixel
Аудио #1 Rus: 48 kHz, AC3 Dolby Digital, 3/2 (L,C,R,l,r) + LFE ch, ~384 kbps

Внимание, присутствует реклама!


Общее
Полное имя : D:\IdeaFilm\Hap.and.Leonard.S01.WEB-DLRip\Hap.and.Leonard.S01E01.WEB-DLRip.IdeaFilm.avi
Формат : AVI
Формат/Информация : Audio Video Interleave
Размер файла : 460 Мбайт
Продолжительность : 44 м. 34 с.
Общий поток : 1443 Кбит/сек
Программа кодирования : Lavf57.41.100
Библиотека кодирования : VirtualDub build 35576/release

Видео
Идентификатор : 0
Формат : MPEG-4 Visual
Профиль формата : Advanced Simple@L4
Параметр BVOP формата : 2
Параметр QPel формата : Нет
Параметр GMC формата : Без точки перехода
Параметр матрицы формата : Default (H.263)
Режим смешивания : Сжатый битовый поток
Идентификатор кодека : XVID
Идентификатор кодека/Подсказка : XviD
Продолжительность : 44 м. 34 с.
Битрейт : 1049 Кбит/сек
Ширина : 720 пикселей
Высота : 400 пикселей
Соотношение сторон : 16:9
Частота кадров : 23,976 (24000/1001) кадра/сек
Цветовое пространство : YUV
Субдискретизация насыщенности : 4:2:0
Битовая глубина : 8 бит
Тип развёртки : Прогрессивная
Метод сжатия : С потерями
Бит/(Пиксели*Кадры) : 0.152
Размер потока : 334 Мбайт (73%)
Библиотека кодирования : XviD 67

Аудио
Идентификатор : 1
Формат : AC-3
Формат/Информация : Audio Coding 3
Параметр Endianness формата : Big
Идентификатор кодека : 2000
Продолжительность : 44 м. 34 с.
Вид битрейта : Постоянный
Битрейт : 384 Кбит/сек
Каналы : 6 каналов
Расположение каналов : Front: L C R, Side: L R, LFE
Частота : 48,0 КГц
Частота кадров : 31,250 кадров/сек (1536 spf)
Битовая глубина : 16 бит
Метод сжатия : С потерями
Размер потока : 122 Мбайт (27%)
Выравнивание : Соединение по промежуткам
Продолжительность промежутка : 42 мс. (1,00 видеокадр)
Время предзагрузки промежутка : 512 мс.
ServiceKind/String : Complete Main



_________________
Проголосуй за трекер Открытый торрент трекер - RUS-MEDIA.ORG

Проголосуй Открытый торрент трекер - RUS-MEDIA.ORG



реклама партнёра


Вернуться к началу
 Профиль Отправить личное сообщение  
 
   Похожие торренты   Автор   Торрент   Размер 
В этой теме нет новых непрочитанных сообщений. Хэп и Леонард / Hap and Leonard / 1 сезон 1-6 серии из 6 [криминал, чёрная комедия, детектив, 2016] WEB-DLRip 720p, Mvo [IdeaFilm]

salma3

28 | 25

11.45 ГБ

В этой теме нет новых непрочитанных сообщений. Оттенки синего / Shades Of Blue / 1 сезон 1-10 серии из 13 [драма, криминал, 2016] WEB-DLRip, Mvo [IdeaFilm]

Dracon

1 | 0

5.37 ГБ

В этой теме нет новых непрочитанных сообщений. Самозванец / Impastor / 2 сезон 1-10 серии из 10 [комедия, 2016] WEB-DLRip, Mvo [IdeaFilm]

salma3

44 | 37

2.62 ГБ

В этой теме нет новых непрочитанных сообщений. Мажор (2 сезон: 1-12 серии из 12) [криминал, драма, детектив, 2016] WEB-DLRip-AVC

salma3

834 | 1361

8.61 ГБ

В этой теме нет новых непрочитанных сообщений. Риццоли и Айлз / Rizzoli & Isles / 7 сезон 1-13 серии из 13 [драма, криминал, детектив, 2016] WEB-DLRip, Mvo [NewStudio]

salma3

41 | 26

6.84 ГБ

В этой теме нет новых непрочитанных сообщений. База Куантико / Quantico / 2 сезон 1-22 серии из 22 [триллер, драма, криминал, детектив, 2016] WEB-DLRip, Mvo [NewStudio]

salma3

9 | 12

11.39 ГБ

В этой теме нет новых непрочитанных сообщений. Самозванец / Impastor / 2 сезон 1-10 серии из 10 [комедия, 2016] WEB-DL 720p, Mvo [IdeaFilm]

salma3

36 | 25

6.07 ГБ


Начать новую тему Ответить на тему  [ 1 сообщение ] 




Для Мосгорсуда, Роскомнадзора и рекламодателей:: mosgorsud-torrent[собачка]yandex.ru