Торрент файл
скачать торрент магнет ссылка Добавлен: 02 мар 2017, 16:28
Размер: 11.45 ГБ
Сидеров: 28
Личеров: 25
Статус: (salma3)
Автор

СообщениеДобавлено: 02 мар 2017, 16:28 

Не в сети
Супермодератор
Аватара пользователя
Дата регистрации:
15 фев 2012, 16:44
Возраст: 28
Спасибо: 6672 / 2146
Сообщения: 46165
Режиссер: Джим Микл, Ник Гомез, Морис Мэрэб
Жанр: Триллер, комедия, драма

Год выпуска: 2016

В ролях: Джеймс Пьюрфой, Майкл Кеннет Уильямс, Джимми Симпсон, Билл Сейдж, Кристина Хендрикс, Поллианна МакИнтош, Келвин Браун, Деджа Ди, Ивэн Гэмбл, Крэнстон Джонсон

Описание:
Сериал расскажет о необычной дружбе двух неудачников — Хэпа Коллинза и Леонарда Пайна. Хэп — белый работяга, который провел свою юность в тюрьме за то, что отказался воевать во Вьетнаме. Пайн — чернокожий открытый гей, ветеран Вьетнама, от которого отвернулась родня из-за его ориентации и проблем с управлением гневом.




Страна: США
Продолжительность: 6 х ~00:45:00
Перевод: Профессиональный (многоголосый, закадровый)IdeaFilm

Формат: WEB-DLRip 720p
Видео: 1280х720 (16:9), 23,976 fps, AVC (х264), , ~5719 kbps avg, 0.328 bit/pixel
Аудио #1 Rus: 48 kHz, AC3 Dolby Digital, 3/2 (L,C,R,l,r) + LFE ch, ~384 kbps
Аудио #2 Eng: 48 kHz, AC3 Dolby Digital, 3/2 (L,C,R,l,r) + LFE ch, ~384 kbps

Внимание, присутствует реклама!


Общее
Уникальный идентификатор : 243280861558905829399314838852436637398 (0xB706308AC1C40C16B5C4B8D192F636D6)
Полное имя : D:\IdeaFilm\Hap.and.Leonard.S01.WEB-DLRip.720p\Hap.and.Leonard.S01E01.720p.WEB-DLRip.IdeaFilm.mkv
Формат : Matroska
Версия формата : Version 4 / Version 2
Размер файла : 2,02 Гбайт
Продолжительность : 44 м. 34 с.
Общий поток : 6484 Кбит/сек
Дата кодирования : UTC 2017-03-02 11:27:08
Программа кодирования : mkvmerge v9.7.1 ('Pandemonium') 64bit
Библиотека кодирования : libebml v1.3.4 + libmatroska v1.4.5

Видео
Идентификатор : 1
Формат : AVC
Формат/Информация : Advanced Video Codec
Профиль формата :
Параметр CABAC формата : Да
Параметр ReFrames формата : 3 кадра
Идентификатор кодека : V_MPEG4/ISO/AVC
Продолжительность : 44 м. 34 с.
Битрейт : 5719 Кбит/сек
Ширина : 1280 пикселей
Высота : 720 пикселей
Соотношение сторон : 16:9
Режим частоты кадров : Постоянный
Частота кадров : 23,976 (24000/1001) кадра/сек
Стандарт вещания : NTSC
Цветовое пространство : YUV
Субдискретизация насыщенности : 4:2:0
Битовая глубина : 8 бит
Тип развёртки : Прогрессивная
Бит/(Пиксели*Кадры) : 0.259
Размер потока : 1,78 Гбайт (88%)
Язык : English
Default : Да
Forced : Нет
Цветовой диапазон : Limited
Основные цвета : BT.709
Характеристики трансфера : BT.709
Коэффициенты матрицы : BT.709

Аудио #1
Идентификатор : 2
Формат : AC-3
Формат/Информация : Audio Coding 3
Параметр Endianness формата : Big
Идентификатор кодека : A_AC3
Продолжительность : 44 м. 34 с.
Вид битрейта : Постоянный
Битрейт : 384 Кбит/сек
Каналы : 6 каналов
Расположение каналов : Front: L C R, Side: L R, LFE
Частота : 48,0 КГц
Частота кадров : 31,250 кадров/сек (1536 spf)
Битовая глубина : 16 бит
Метод сжатия : С потерями
Размер потока : 122 Мбайт (6%)
Заголовок : IDEAFILM
Язык : Russian
ServiceKind/String : Complete Main
Default : Да
Forced : Нет

Аудио #2
Идентификатор : 3
Формат : AC-3
Формат/Информация : Audio Coding 3
Параметр Endianness формата : Big
Идентификатор кодека : A_AC3
Продолжительность : 44 м. 1 с.
Вид битрейта : Постоянный
Битрейт : 384 Кбит/сек
Каналы : 6 каналов
Расположение каналов : Front: L C R, Side: L R, LFE
Частота : 48,0 КГц
Частота кадров : 31,250 кадров/сек (1536 spf)
Битовая глубина : 16 бит
Метод сжатия : С потерями
Задержка видео : 33 с. 0 мс.
Размер потока : 121 Мбайт (6%)
Язык : English
ServiceKind/String : Complete Main
Default : Нет
Forced : Нет



_________________
Проголосуй за трекер Открытый торрент трекер - RUS-MEDIA.ORG

Проголосуй Открытый торрент трекер - RUS-MEDIA.ORG



реклама партнёра


Вернуться к началу
 Профиль Отправить личное сообщение  
 
   Похожие торренты   Автор   Торрент   Размер 
В этой теме нет новых непрочитанных сообщений. Хэп и Леонард / Hap and Leonard / 1 сезон 1-6 серии из 6 [криминал, чёрная комедия, детектив, 2016] WEB-DLRip, Mvo [IdeaFilm]

salma3

57 | 28

2.71 ГБ

В этой теме нет новых непрочитанных сообщений. Оттенки синего / Shades Of Blue / 1 сезон 1-10 серии из 13 [драма, криминал, 2016] WEB-DLRip, Mvo [IdeaFilm]

Dracon

1 | 0

5.37 ГБ

В этой теме нет новых непрочитанных сообщений. Самозванец / Impastor / 2 сезон 1-10 серии из 10 [комедия, 2016] WEB-DLRip, Mvo [IdeaFilm]

salma3

44 | 37

2.62 ГБ

В этой теме нет новых непрочитанных сообщений. Самозванец / Impastor / 2 сезон 1-10 серии из 10 [комедия, 2016] WEB-DL 720p, Mvo [IdeaFilm]

salma3

36 | 25

6.07 ГБ

В этой теме нет новых непрочитанных сообщений. Морская полиция: Лос-Анджелес / NCIS: Los Angeles [08x01-21 из 24] ( Криминал, триллер, драма, детектив, 2016) WEB-DLRip 720p | IdeaFilm

marya111

1 | 2

29.01 ГБ

В этой теме нет новых непрочитанных сообщений. Мажор (2 сезон: 1-12 серии из 12) [криминал, драма, детектив, 2016] WEB-DLRip-AVC

salma3

834 | 1361

8.61 ГБ

В этой теме нет новых непрочитанных сообщений. Риццоли и Айлз / Rizzoli & Isles / 7 сезон 1-13 серии из 13 [драма, криминал, детектив, 2016] WEB-DLRip, Mvo [NewStudio]

salma3

41 | 26

6.84 ГБ


Начать новую тему Ответить на тему  [ 1 сообщение ] 




Для Мосгорсуда, Роскомнадзора и рекламодателей:: mosgorsud-torrent[собачка]yandex.ru