Торрент файл
скачать торрент магнет ссылка Добавлен: 02 мар 2017, 12:10
Размер: 18.54 ГБ
Сидеров: 19
Личеров: 18
Статус: (salma3)
Автор

СообщениеДобавлено: 02 мар 2017, 12:10 

Не в сети
Супермодератор
Аватара пользователя
Дата регистрации:
15 фев 2012, 16:44
Возраст: 28
Спасибо: 7163 / 2147
Сообщения: 61886
Год выпуска: 2014
Жанр: комедия
Режиссер: Фил Лорд

В ролях: Энди Сэмберг, Андре Брогер, Терри Крюс, Мелисса Фумеро, Джо Ло Трульо, Стефани Беатриз и др.

Описание:
История о том, что происходит, когда у детектива, не воспринимающего ничего серьёзно, появляется новый руководитель, который хочет, чтобы он рос и с уважением относился к своей должности.



Страна: США
Продолжительность: 22 x 00:22:00
Перевод:Профессиональный (полное дублирование) [Paramount Comedy]

Качество: WEB-DL 1080р
Видео: 1920x1080 (16:9), 25.000 fps, MPEG-4 AVC ~5 390 kbps avg
Аудио №1: 48.0 kHz, AC3 Dolby Digital, 2/0 (L,R) ch, ~192 kbps | RUS / Paramount Comedy
Аудио №2: 48.0 kHz, AC3 Dolby Digital, 3/2 (L,C,R,l,r) + LFE ch, ~384 kbps | ENG



General
Unique ID : 214118840130981576250929692165176988315 (0xA115C9E0CF41250B917C56E55C7E929B)
Complete name : Brooklyn.Nine.Nine.S01E01.Pilot.1080p.WEBDL.Paramount.Comedy.mkv
Format : Matroska
Format version : Version 4 / Version 2
File size : 950 MiB
Duration : 21 min 49 s
Overall bit rate : 6 087 kb/s
Encoded date : UTC 2017-02-02 03:06:30
Writing application : mkvmerge v9.8.0 ('Kuglblids') 64bit
Writing library : libebml v1.3.4 + libmatroska v1.4.5
Video
ID : 1
Format : AVC
Format/Info : Advanced Video Codec
Format profile : High@L4
Format settings, CABAC : Yes
Format settings, ReFrames : 4 frames
Codec ID : V_MPEG4/ISO/AVC
Duration : 21 min 49 s
Bit rate : 5 390 kb/s
Width : 1 920 pixels
Height : 1 080 pixels
Display aspect ratio : 16:9
Frame rate mode : Constant
Frame rate : 25.000 FPS
Color space : YUV
Chroma subsampling : 4:2:0
Bit depth : 8 bits
Scan type : Progressive
Bits/(Pixel*Frame) : 0.104
Stream size : 841 MiB (89%)
Language : English
Default : Yes
Forced : No
Color range : Limited
Color primaries : BT.709
Transfer characteristics : BT.709
Matrix coefficients : BT.709
Audio #1
ID : 2
Format : AC-3
Format/Info : Audio Coding 3
Mode extension : CM (complete main)
Format settings, Endianness : Big
Codec ID : A_AC3
Duration : 21 min 49 s
Bit rate mode : Constant
Bit rate : 192 kb/s
Channel(s) : 2 channels
Channel positions : Front: L R
Sampling rate : 48.0 kHz
Frame rate : 31.250 FPS (1536 spf)
Compression mode : Lossy
Stream size : 30.0 MiB (3%)
Language : Russian
Default : Yes
Forced : No
Audio #2
ID : 3
Format : AC-3
Format/Info : Audio Coding 3
Mode extension : CM (complete main)
Format settings, Endianness : Big
Codec ID : A_AC3
Duration : 21 min 49 s
Bit rate mode : Constant
Bit rate : 384 kb/s
Channel(s) : 6 channels
Channel positions : Front: L C R, Side: L R, LFE
Sampling rate : 48.0 kHz
Frame rate : 31.250 FPS (1536 spf)
Compression mode : Lossy
Stream size : 59.9 MiB (6%)
Language : English
Default : No
Forced : No

Релиз от: TaLi4


_________________
Проголосуй за трекер Открытый торрент трекер - RUS-MEDIA.ORG

Проголосуй Открытый торрент трекер - RUS-MEDIA.ORG


Вернуться к началу
 Профиль Отправить личное сообщение  
 
   Похожие торренты   Автор   Торрент   Размер 
В этой теме нет новых непрочитанных сообщений. Бруклин 9-9 / Brooklyn Nine-Nine [S01] [комедия, 2013-2014] WEB-DLRip, Dub [Paramount Comedy]

salma3

32 | 14

5.05 ГБ

В этой теме нет новых непрочитанных сообщений. Бруклин 9-9 / Brooklyn Nine-Nine [S02] [комедия, криминал, 2014-2015] WEB-DLRip, Dub [Paramount Comedy]

salma3

0 | 0

5.28 ГБ

В этой теме нет новых непрочитанных сообщений. Последний настоящий мужчина / Last Man Standing [S03] [комедия, 2013-2014] WEB-DLRip 720p, Dub [Paramount Comedy]

salma3

22 | 14

15.53 ГБ

В этой теме нет новых непрочитанных сообщений. Последний настоящий мужчина / Last Man Standing [S04] [комедия, 2013-2014] WEB-DLRip 720p, Dub [Paramount Comedy]

salma3

18 | 7

15.48 ГБ

В этой теме нет новых непрочитанных сообщений. Последний настоящий мужчина / Last Man Standing [S02] [комедия, 2013-2014] WEB-DLRip 720p, Dub [Paramount Comedy]

salma3

21 | 16

12.68 ГБ

В этой теме нет новых непрочитанных сообщений. Новенькая / New Girl [S04] [комедия, 2014] WEB-DLRip, Dub [Paramount Comedy]

salma3

9 | 23

5.05 ГБ

В этой теме нет новых непрочитанных сообщений. Такси: Южный Бруклин / Taxi Brooklyn [S01] [боевик, драма, комедия, криминал, 2014] HDTVRip, Avo

salma3

21 | 15

4.55 ГБ


Начать новую тему Ответить на тему  [ 1 сообщение ] 




Для Мосгорсуда, Роскомнадзора и рекламодателей:: mosgorsud-torrent[собачка]yandex.ru
cron