Торрент файл
скачать торрент магнет ссылка Добавлен: 18 фев 2017, 16:37
Размер: 5.17 ГБ
Сидеров: 29
Личеров: 183
Автор

СообщениеДобавлено: 18 фев 2017, 16:37 

Не в сети
Дата регистрации:
28 сен 2016, 18:10
Спасибо: 211 / 0
Сообщения: 1999
Информация о сериале
Название: Колония
Оригинальное название: Colony
Год выпуска: 2017
Жанр: Фантастика
Режиссер: Хуан Хосе Кампанелла, Нельсон МакКормик, Скотт Питерс
В ролях: Джош Холлоуэй, Сара Уэйн Кэллис, Питер Джекобсон, Аманда Ригетти, Тори Киттлз, Алекс Нюстадтер, Изабелла Крамп, Ким Родс, Гонсало Менендес, Пол Гилфойл, Кэтлин Роуз Перкинс, Карл Уэзерс, Элли Уокер, Джейкоб Варгас, Кэтрин Моррис, Адриан Пасдар, Мэри Боннер Бэйкер
Описание сериала:
События в сериале разворачиваются в недалеком будущем. Лос-Анджелес с жителями оккупирован и находится под контролем нового правительства. Часть жителей смирилась с новым порядком и пытается наладить жизнь в новых условиях, другая часть выбрала путь повстанцев и сопротивления режиму. В центре событий Бывший агент ФБР Уилл Боумэн и его супруга Кейти. Это семья потерявшая сына во время вторжения. Уилл и Кэйт готовы сделать все необходимое, чтобы вернуть сына домой. И даже принять предложение о сотрудничестве от главы оккупационного правительства Прокси Снайдера. Соглашаясь на сотрудничество они и не могли предположить о последствиях, которые превратят их жизнь в сплошной кошмар.

Выпущено: США, Legendary Television
Продолжительность: 6 x ~ 00:43:00
Перевод: Любительский многоголосый (SunshineStudio)
Файл
Качество: HDTVRip (720p)
Видео: MPEG-4 AVC, ~ 3000 Кбит/с, 1280x720
Аудио: Русский (AC3, 2 ch, 192 Кбит/с)
Размер: 5.16 ГБ
Субтитры: Отсутствуют
Присутствует реклама!

General
Unique ID : 182440534752520649853193287046075036721 (0x8940C4D64D53F6E48941CB9384D0B431)
Complete name : Colony.S02E01.720p.SunshineStudio.mkv
Format : Matroska
Format version : Version 4 / Version 2
File size : 1 021 MiB
Duration : 43mn 21s
Overall bit rate : 3 292 Kbps
Encoded date : UTC 2017-01-13 12:05:41
Writing application : mkvmerge v8.3.0 ('Over the Horizon') 64bit
Writing library : libebml v1.3.1 + libmatroska v1.4.2
DURATION : 00:43:21.027000000
NUMBER_OF_FRAMES : 81282
NUMBER_OF_BYTES : 62424576
_STATISTICS_WRITING_APP : mkvmerge v8.3.0 ('Over the Horizon') 64bit
_STATISTICS_WRITING_DATE_UTC : 2017-01-13 12:05:41
_STATISTICS_TAGS : BPS DURATION NUMBER_OF_FRAMES NUMBER_OF_BYTES
Video
ID : 1
Format : AVC
Format/Info : Advanced Video Codec
Format profile : High@L3.1
Format settings, CABAC : Yes
Format settings, ReFrames : 4 frames
Codec ID : V_MPEG4/ISO/AVC
Duration : 43mn 21s
Bit rate : 3 034 Kbps
Width : 1 280 pixels
Height : 720 pixels
Display aspect ratio : 16:9
Frame rate mode : Constant
Frame rate : 23.976 fps
Color space : YUV
Chroma subsampling : 4:2:0
Bit depth : 8 bits
Scan type : Progressive
Bits/(Pixel*Frame) : 0.137
Stream size : 941 MiB (92%)
Writing library : x264 core 130 r2273 b3065e6
Encoding settings : cabac=1 / ref=1 / deblock=1:0:0 / analyse=0x3:0x113 / me=hex / subme=2 / psy=1 / psy_rd=1.00:0.10 / mixed_ref=0 / me_range=16 / chroma_me=1 / trellis=0 / 8x8dct=1 / cqm=0 / deadzone=21,11 / fast_pskip=1 / chroma_qp_offset=0 / threads=6 / lookahead_threads=2 / sliced_threads=0 / nr=0 / decimate=1 / interlaced=0 / bluray_compat=0 / constrained_intra=0 / bframes=3 / b_pyramid=2 / b_adapt=1 / b_bias=0 / direct=1 / weightb=1 / open_gop=0 / weightp=1 / keyint=250 / keyint_min=23 / scenecut=40 / intra_refresh=0 / rc_lookahead=10 / rc=crf / mbtree=1 / crf=17.0 / qcomp=0.60 / qpmin=0 / qpmax=69 / qpstep=4 / ip_ratio=1.40 / aq=1:1.00
Language : English
Default : Yes
Forced : No
DURATION : 00:43:20.983000000
NUMBER_OF_FRAMES : 62361
NUMBER_OF_BYTES : 1007288375
_STATISTICS_WRITING_APP : mkvmerge v8.3.0 ('Over the Horizon') 64bit
_STATISTICS_WRITING_DATE_UTC : 2017-01-13 12:05:41
_STATISTICS_TAGS : BPS DURATION NUMBER_OF_FRAMES NUMBER_OF_BYTES
Audio
ID : 2
Format : AC-3
Format/Info : Audio Coding 3
Mode extension : CM (complete main)
Format settings, Endianness : Big
Codec ID : A_AC3
Duration : 43mn 21s
Bit rate mode : Constant
Bit rate : 192 Kbps
Channel(s) : 2 channels
Channel positions : Front: L R
Sampling rate : 48.0 KHz
Bit depth : 16 bits
Compression mode : Lossy
Stream size : 59.5 MiB (6%)
Default : Yes
Forced : No

Релиз от:




реклама партнёра


Вернуться к началу
 Профиль Отправить личное сообщение  
 
   Похожие торренты   Автор   Торрент   Размер 
В этой теме нет новых непрочитанных сообщений. Настоящие О’Нилы / The Real O'Neals [02х01-12 из 13] (Комедия, 2016-2017) HDTVRip 720p | Sunshine Studio

marya111

2 | 11

6.37 ГБ

В этой теме нет новых непрочитанных сообщений. Супергёрл / Supergirl [02х01-09 из 22] (2016) HDTVRip | Sunshine Studio

marya111

13 | 65

4.6 ГБ

В этой теме нет новых непрочитанных сообщений. Супергёрл / Supergirl [02х01-09 из 22] (2016) HDTVRip 720р | Sunshine Studio

marya111

6 | 37

7.37 ГБ

В этой теме нет новых непрочитанных сообщений. Стрелок / Shooter [02х01 из 10] [Боевик, драма, 2017] HDTVRip 720p, Mvo [Sunshine Studio]

salma3

0 | 0

898 МБ

В этой теме нет новых непрочитанных сообщений. Королевы крика / Scream Queens [02х01-05 из 13] ( ужасы, комедия, детектив, 2016) HDTVRip 720р | Sunshine Studio

marya111

6 | 46

4.51 ГБ

В этой теме нет новых непрочитанных сообщений. Люцифер / Lucifer [02х01-09 из 22] (2016) WEB-DLRip | Sunshine Studio

marya111

87 | 981

4.59 ГБ

В этой теме нет новых непрочитанных сообщений. Люцифер / Lucifer [02х01-09 из 22] (2016) WEB-DLRip 720р | Sunshine Studio

marya111

25 | 368

7.87 ГБ


Начать новую тему Ответить на тему  [ 1 сообщение ] 




Для Мосгорсуда, Роскомнадзора и рекламодателей:: mosgorsud-torrent[собачка]yandex.ru