Торрент файл
скачать торрент магнет ссылка Добавлен: 14 фев 2017, 21:41
Размер: 6.08 ГБ
Сидеров: 157
Личеров: 100
Статус: (salma3)
Автор

СообщениеДобавлено: 14 фев 2017, 21:41 

Не в сети
Супермодератор
Аватара пользователя
Дата регистрации:
15 фев 2012, 16:44
Возраст: 28
Спасибо: 7224 / 2147
Сообщения: 68142
Год выпуска: 2017
Жанр: Детектив
Режиссер: Георгий Гаврилов

В ролях: Анатолий Белый, Дмитрий Мазуров, Дмитрий Ратомский, Тарас Кузьмин, Тимур Ефременков, Евгений Березовский, Алёна Бабенко, Василий Мищенко

О фильме:
Неуловимая банда похитила известных предпринимателей одного за другим, после чего сделала им «предложение, от которого нельзя отказаться»: на шеях жертв закрепили ошейники, внутри которых взрывчатка. Если бизнесмен не принесет бандитам выкуп за свою жизнь — прогремит взрыв. Найти и обезоружить банду террористов поручили одному из лучших сотрудников УВД Денису Брунову. Он хотел отказаться от дела из-за личных проблем. Но когда преступники надели на него стальной капкан, его жизнь изменилась



Страна: Россия
Студия: ООО "Творческое Объединение КЕДР"
Продолжительность: 2 x ~ 00:51:00

Файл
Кодек: h.264
Качество: HDTV 1080i
Видео: AVC/H.264, 1920x1080, ~ 7876 kbps
Аудио: MP2, 2 ch, 192 kbps

Общее
Идентификатор : 1 (0x1)
Полное имя : D:Загрузки uTorrentVzryvnaya.volna.2016.HDTV.1080iVzryvnaya.volna.01.2016.HDTV.1080i.ts
Формат : MPEG-TS
Размер файла : 3,04 Гбайт
Продолжительность : 51 м. 12 с.
Режим общего битрейта : Переменный
Общий поток : 8490 Кбит/сек

Видео
Идентификатор : 901 (0x385)
Идентификатор меню : 1081 (0x439)
Формат : AVC
Формат/Информация : Advanced Video Codec
Профиль формата : Main@L4
Параметр CABAC формата : Да
Параметр ReFrames формата : 2 кадра
Параметр GOP формата : M=3, N=30
Идентификатор кодека : 27
Продолжительность : 51 м. 14 с.
Битрейт : 7876 Кбит/сек
Ширина : 1920 пикселей
Высота : 1080 пикселей
Соотношение сторон : 16:9
Частота кадров : 25,000 кадров/сек
Цветовое пространство : YUV
Субдискретизация насыщенности : 4:2:0
Битовая глубина : 8 бит
Тип развёртки : MBAFF
Метод сохранения типа развёртки : Чередующиеся поля
Порядок развёртки : Верхнее поле первое
Бит/(Пиксели*Кадры) : 0.152
Размер потока : 2,82 Гбайт (93%)
Цветовой диапазон : Limited
Основные цвета : BT.709
Характеристики трансфера : BT.709
Коэффициенты матрицы : BT.709

Аудио
Идентификатор : 902 (0x386)
Идентификатор меню : 1081 (0x439)
Формат : MPEG Audio
Версия формата : Version 1
Профиль формата : Layer 2
Идентификатор кодека : 3
Продолжительность : 51 м. 13 с.
Вид битрейта : Постоянный
Битрейт : 192 Кбит/сек
Каналы : 2 канала
Частота : 48,0 КГц
Метод сжатия : С потерями
Размер потока : 70,4 Мбайт (2%)
Язык : Russian


_________________
Проголосуй за трекер Открытый торрент трекер - RUS-MEDIA.ORG

Проголосуй Открытый торрент трекер - RUS-MEDIA.ORG


Вернуться к началу
 Профиль Отправить личное сообщение  
 
   Похожие торренты   Автор   Торрент   Размер 
В этой теме нет новых непрочитанных сообщений. Взрывная волна [01-02 из 02] [Детектив, 2017] HDTVRip

salma3

847 | 404

1.45 ГБ

В этой теме нет новых непрочитанных сообщений. Взрывная волна [01-02 из 02] [Детектив, 2017] HDTVRip 720p

salma3

344 | 179

2.63 ГБ

В этой теме нет новых непрочитанных сообщений. Детская Новая волна (Международный конкурс детской песни) [01-03 из 03] (Россия) [Тв-шоу, концерт, 2015] HDTV 1080i

Dracon

2 | 1

12.01 ГБ

В этой теме нет новых непрочитанных сообщений. Нюхач [S03] [Детектив, 2017] HDTV 1080i

salma3

68 | 20

15.17 ГБ

В этой теме нет новых непрочитанных сообщений. Икра [01-08 из 08] [Детектив, 2017] HDTV 1080i

salma3

0 | 0

26.6 ГБ

В этой теме нет новых непрочитанных сообщений. Охота на дьявола [01-16 из 16] [Детектив, 2017] HDTV 1080i

salma3

404 | 1019

39.2 ГБ

В этой теме нет новых непрочитанных сообщений. Нюхач [3х01-02 из 08] [Детектив, 2017] HDTV 1080i

salma3

100 | 28

3.92 ГБ


Начать новую тему Ответить на тему  [ 1 сообщение ] 




Для Мосгорсуда, Роскомнадзора и рекламодателей:: mosgorsud-torrent[собачка]yandex.ru
cron