Торрент файл
скачать торрент магнет ссылка Добавлен: 01 апр 2017, 21:13
Размер: 22.29 ГБ
Сидеров: 0
Личеров: 0
Автор

СообщениеДобавлено: 13 фев 2017, 23:45 

Не в сети
Аватара пользователя
Дата регистрации:
09 авг 2014, 12:07
Спасибо: 61 / 1
Сообщения: 219
Откуда: КРАСНОГОРСК
Легион / Legion Сезон 1, Серия 1-8 из 8



Год выпуска: 2017
Выпущено: США, 20th Century Fox Television, 26 Keys Productions, FX Productions, Marvel Entertainment, Marvel Television, Walt Disney Television
Жанр: Фантастика, боевик, драма
Продолжительность: 01:10:00
Сезон:1
Серия: 1-8
Количество серий в сезоне: 8

Озвучка 1: Профессиональный многоголосый - Kravec -Русский

Озвучка2: Профессиональный многоголосый - LostFilm -Русский

Озвучка3: Профессиональный многоголосый - NewStudiо -Русский

Озвучка4: Профессиональный многоголосый - BaibaKo -Русский

Озвучка5: Профессиональный многоголосый - Kubik V Kube -Русский

Озвучка 6: Профессиональный многоголосый - Английский - Оригинал

Субтитры: : Russian , English


MDB

Режиссеры:
Майкл Аппендаль, Ной Хоули, Дэнни Гордон

Актеры:
Дэн Стивенс, Джин Смарт, МакКензи Грэй, Скотт Лоуренс, Кэтрин Аселтон, Татьяна Форрест, Джереми Харрис, Билл Ирвин, Рэйчел Келлер, Эмбер Мидфандер, Обри Плаза, Хамиш Линклэйтер, Дженнифер Китчен



Дэвиду Хэллеру поставлен диагноз шизофрения. Постепенно выясняется, что картины и голоса, которые он видит и слышит, вполне реальны, а не бред его воспаленного разума.




Качество :WEB-DLRip 1080p
Формат: MKV
Видео кодек: H264
Видео: 5159Кбит/сек,1920х1080(16,9),в 23.976кадр/сек,AVC(High@L4)(CABAC/4 Ref Frames)
Аудио Кодек:AC3

Аудио #1:AC3 , 384 Kbps, 48.0 KHz, 6 ch- Kravec -Русский

Аудио #2:AC3 , 384 Kbps, 48.0 KHz, 6 ch- LostFilm -Русский

Аудио #3:AC3 , 384 Kbps, 48.0 KHz, 6 ch- NewStudiо -Русский

Аудио #4:AC3 , 384 Kbps, 48.0 KHz, 6 ch- BaibaKo -Русский

Аудио #5:AC3 , 384 Kbps, 48.0 KHz, 6 ch- Kubik V Kube -Русский

Аудио #6: AC3, 640 Kbps, 48.0 KHz,6 ch - - English - Оригинал


Звуковая дорожка сделана путем наложения чистого голоса озвучивателей на центральный канал оригинальной дорожки. Качество идентично звуковой дорожке.



01 : Глава 1(Chapter 1)
02 : Глава 2( Chapter 2)
03 : Глава 3 ( Chapter 3 )
04 : Глава 3 ( Chapter 4 )
05 : Глава 3 ( Chapter 5 )
06 : Глава 3 ( Chapter 6 )
07 : Глава 3 ( Chapter 7 )
08 : Глава 3 ( Chapter 8 )




Общее
Уникальный идентификатор : 180568928794741798543911918395411069007 (0x87D84F89FB1E8EE2B7482E218F7AF84F)
Полное имя : D:\ПИРАТИЯ(PIRATIYA)\ЛЕГИОН( Legion)\LEGION_2017_S01_[Kravec_LostFilm_NewStudiо_BaibaKo_Kubik V Kube]_DD5.1_N.B_WEB-DL_1800p_5xRus_Eng\Legion_S01E01_Н264_DD5.1_N.B_WEB-DL_1080p_5xRus_Eng.mkv
Формат : Matroska
Версия формата : Version 4 / Version 2
Размер файла : 3,76 Гбайт
Продолжительность : 1 ч. 9 м.
Общий поток : 7701 Кбит/сек
Название фильма : Legion_S01E01_Н264_DD5.1_N.B_WEB-DL_1080p_5xRus_Eng
Дата кодирования : UTC 2017-02-26 08:02:19
Программа кодирования : mkvmerge v9.9.0 ('Pick Up') 64bit
Библиотека кодирования : libebml v1.3.4 + libmatroska v1.4.5
Обложка : Yes
Attachments : small_cover.jpg / small_cover_land.jpg / cover.jpg / cover_land.jpg

Видео
Идентификатор : 1
Формат : AVC
Формат/Информация : Advanced Video Codec
Профиль формата : High@L4
Параметр CABAC формата : Да
Параметр ReFrames формата : 4 кадра
Идентификатор кодека : V_MPEG4/ISO/AVC
Продолжительность : 1 ч. 9 м.
Битрейт : 5159 Кбит/сек
Ширина : 1920 пикселей
Высота : 1080 пикселей
Соотношение сторон : 16:9
Режим частоты кадров : Постоянный
Частота кадров : 23,976 (24000/1001) кадра/сек
Цветовое пространство : YUV
Субдискретизация насыщенности : 4:2:0
Битовая глубина : 8 бит
Тип развёртки : Прогрессивная
Бит/(Пиксели*Кадры) : 0.104
Размер потока : 2,52 Гбайт (67%)
Заголовок : Legion_S01E01_Н264_DD5.1_N.B_WEB-DL_1080p_5xRus_Eng
Язык : Russian
Default : Нет
Forced : Нет
Цветовой диапазон : Limited
Основные цвета : BT.709
Характеристики трансфера : BT.709
Коэффициенты матрицы : BT.709

Аудио #1
Идентификатор : 4
Формат : AC-3
Формат/Информация : Audio Coding 3
Параметр Endianness формата : Big
Идентификатор кодека : A_AC3
Продолжительность : 1 ч. 7 м.
Вид битрейта : Постоянный
Битрейт : 384 Кбит/сек
Каналы : 6 каналов
Расположение каналов : Front: L C R, Side: L R, LFE
Частота : 48,0 КГц
Частота кадров : 31,250 кадров/сек (1536 spf)
Битовая глубина : 16 бит
Метод сжатия : С потерями
Размер потока : 187 Мбайт (5%)
Заголовок : MVO Kravec @DD5.1 AC3, 384 Kbps, 48.0 KHz, 6 ch
Язык : Russian
ServiceKind/String : Complete Main
Default : Да
Forced : Нет

Аудио #2
Идентификатор : 5
Формат : AC-3
Формат/Информация : Audio Coding 3
Параметр Endianness формата : Big
Идентификатор кодека : A_AC3
Продолжительность : 1 ч. 7 м.
Вид битрейта : Постоянный
Битрейт : 384 Кбит/сек
Каналы : 6 каналов
Расположение каналов : Front: L C R, Side: L R, LFE
Частота : 48,0 КГц
Частота кадров : 31,250 кадров/сек (1536 spf)
Битовая глубина : 16 бит
Метод сжатия : С потерями
Размер потока : 186 Мбайт (5%)
Заголовок : MVO LostFilm @DD5.1 AC3, 384 Kbps, 48.0 KHz, 6 ch
Язык : Russian
ServiceKind/String : Complete Main
Default : Нет
Forced : Нет

Аудио #3
Идентификатор : 6
Формат : AC-3
Формат/Информация : Audio Coding 3
Параметр Endianness формата : Big
Идентификатор кодека : A_AC3
Продолжительность : 1 ч. 9 м.
Вид битрейта : Постоянный
Битрейт : 384 Кбит/сек
Каналы : 6 каналов
Расположение каналов : Front: L C R, Side: L R, LFE
Частота : 48,0 КГц
Частота кадров : 31,250 кадров/сек (1536 spf)
Битовая глубина : 16 бит
Метод сжатия : С потерями
Размер потока : 192 Мбайт (5%)
Заголовок : MVO NewStudiо @DD5.1 AC3, 384 Kbps, 48.0 KHz, 6 ch
Язык : Russian
ServiceKind/String : Complete Main
Default : Нет
Forced : Нет

Аудио #4
Идентификатор : 7
Формат : AC-3
Формат/Информация : Audio Coding 3
Параметр Endianness формата : Big
Идентификатор кодека : A_AC3
Продолжительность : 1 ч. 9 м.
Вид битрейта : Постоянный
Битрейт : 384 Кбит/сек
Каналы : 6 каналов
Расположение каналов : Front: L C R, Side: L R, LFE
Частота : 48,0 КГц
Частота кадров : 31,250 кадров/сек (1536 spf)
Битовая глубина : 16 бит
Метод сжатия : С потерями
Размер потока : 192 Мбайт (5%)
Заголовок : MVO BaibaKO @DD5.1 AC3, 384 Kbps, 48.0 KHz, 6 ch
Язык : Russian
ServiceKind/String : Complete Main
Default : Нет
Forced : Нет

Аудио #5
Идентификатор : 8
Формат : AC-3
Формат/Информация : Audio Coding 3
Параметр Endianness формата : Big
Идентификатор кодека : A_AC3
Продолжительность : 1 ч. 9 м.
Вид битрейта : Постоянный
Битрейт : 384 Кбит/сек
Каналы : 6 каналов
Расположение каналов : Front: L C R, Side: L R, LFE
Частота : 48,0 КГц
Частота кадров : 31,250 кадров/сек (1536 spf)
Битовая глубина : 16 бит
Метод сжатия : С потерями
Размер потока : 192 Мбайт (5%)
Заголовок : MVO Kubik V Kube @DD5.1 AC3, 384 Kbps, 48.0 KHz, 6 ch
Язык : Russian
ServiceKind/String : Complete Main
Default : Нет
Forced : Нет

Аудио #6
Идентификатор : 9
Формат : AC-3
Формат/Информация : Audio Coding 3
Параметр Endianness формата : Big
Идентификатор кодека : A_AC3
Продолжительность : 1 ч. 9 м.
Вид битрейта : Постоянный
Битрейт : 640 Кбит/сек
Каналы : 6 каналов
Расположение каналов : Front: L C R, Side: L R, LFE
Частота : 48,0 КГц
Частота кадров : 31,250 кадров/сек (1536 spf)
Битовая глубина : 16 бит
Метод сжатия : С потерями
Размер потока : 320 Мбайт (8%)
Заголовок : Original @DD5.1 AC3 ,640 Kbps, 48.0 KHz, 6 ch
Язык : English
ServiceKind/String : Complete Main
Default : Нет
Forced : Нет

Текст #1
Идентификатор : 2
Формат : UTF-8
Идентификатор кодека : S_TEXT/UTF8
Идентификатор кодека/Информация : UTF-8 Plain Text
Продолжительность : 13 м. 36 с.
Битрейт : 12 бит/сек
ElementCount : 27
Размер потока : 1,27 Кбайт (0%)
Заголовок : Rus Forsed
Язык : Russian
Default : Нет
Forced : Нет

Текст #2
Идентификатор : 3
Формат : UTF-8
Идентификатор кодека : S_TEXT/UTF8
Идентификатор кодека/Информация : UTF-8 Plain Text
Продолжительность : 1 ч. 3 м.
Битрейт : 42 бит/сек
ElementCount : 796
Размер потока : 20,1 Кбайт (0%)
Заголовок : Original
Язык : English
Default : Нет
Forced : Нет

Текст #3
Идентификатор : 10
Формат : UTF-8
Идентификатор кодека : S_TEXT/UTF8
Идентификатор кодека/Информация : UTF-8 Plain Text
Продолжительность : 1 ч. 4 м.
Битрейт : 73 бит/сек
ElementCount : 798
Размер потока : 34,7 Кбайт (0%)
Заголовок : Rus
Язык : Russian
Default : Да
Forced : Нет

Меню
00:00:00.000 : en:Глава 01 / en:Глава 01 / en:Глава 01 / en:Глава 01 / en:Глава 01 / en:Глава 01 / en:Глава 01 / en:Глава 01 / en:Глава 01 / en:Глава 01











1. Открыть торрент
2. Снять галки с тех файлов торрента, которые мы не хотим закачивать. Оставляем только на нужных нам файлах (файле).
3. Нажать О.К.

В клиенте utorrent

Инструкция

1) Открыть торрент


2) Снять галки с тех файлов торрента, которые мы не хотим закачивать:

* либо вручную, снимая с каждого файла галку( скрин №1)
* либо, нажав кнопку "Снять метки (Select None)", сняв сразу со всех файлов(скрин №2)
№1

№2

Оставляем только на нужных нам файлах (файле).

3)Нажать О.К







Внимание!!! 01.04. 2017. РАЗДАЧА ОБНОВЛЕНА. ОБНОВИТЕ ТОРЕНТ ФАЙЛ.ПРИЯТНОГО ПРОСМОТРА .

Релиз от: Nikolai.Baranov & PIRATIYA







_________________

Легко быть оптимистом, когда судьба не валит с ног тяжелыми ударами, а лишь иногда легонько шлепает по заднице.



реклама партнёра


Вернуться к началу
 Профиль Отправить личное сообщение  
 
   Похожие торренты   Автор   Торрент   Размер 
В этой теме нет новых непрочитанных сообщений. Проповедник / Preacher (Сезон 1, Серия 1-10 из 10) (Сет Роген) [2016, Фэнтези, драма, детектив, приключения , WEB-DLRip 1080p ] [DD5.1] [MVO] [AlexFilm,,LostFilm,NewStudiо,BaibaKo,FocusStudiо,Kubik V Kube,Kravec, English + Subs Rus,ENG]

Враг Нароода

0 | 0

28.25 ГБ

В этой теме нет новых непрочитанных сообщений. Мистер Робот / Mr. Robot (Сезон 2, Серия 1-12 из 12 ) (Нильс Арден Оплев) [2016, Детектив, Драма, Криминал , WEB-DLRip 1080p ] [MVO] [LostFilm,NewStudiо,BaibaKo,Kravec,OMSKBIRD,Kubik V Kube, English + Subs Rus,ENG]

Враг Нароода

0 | 0

41.05 ГБ

В этой теме нет новых непрочитанных сообщений. Мистер Робот / Mr. Robot (Сезон 2, Серия 1-8 из 13) (Нильс Арден Оплев) [2016, Детектив, Драма, Криминал , WEB-DLRip 1080p ] [MVO] [LostFilm,NewStudiо,BaibaKo,Kravec,OMSKBIRD,FocusStudiо,Kubik V Kube, English + Subs Rus,ENG]

Враг Нароода

1 | 2

31.72 ГБ

В этой теме нет новых непрочитанных сообщений. Лучше звоните Солу / Better Call Saul [2017] (Сезон 3 , Серия 1-4 из 10) (Адам Бернштейн) [ Драма, комедия, криминал , WEB-DLRip][1080p][HEVC , 4К][Kravec+LostFilm+NewStudiо+BaibaKo+OmskBird+Jaskier+Kubik V Kube+Eng]+[Subs ENG]

Враг Нароода

0 | 0

17.37 ГБ

В этой теме нет новых непрочитанных сообщений. Лучше звоните Солу / Better Call Saul [2017] (Сезон 3 , Серия 1-10 из 10) (Адам Бернштейн) [ Драма, комедия, криминал , WEB-DLRip][1080p][HEVC][LostFilm+Pythagoras+Kravec+Jaskier+NewStudiо+BaibaKo+OmskBird+Kubik V Kube+Eng]+[Subs ENG]

Враг Нароода

0 | 0

46.98 ГБ

В этой теме нет новых непрочитанных сообщений. Лучше звоните Солу / Better Call Saul [2017] (Сезон 3 , Серия 1-10 из 10) (Адам Бернштейн) [ Драма, комедия, криминал , WEB-DLRip][720p][H264][LostFilm+Pythagoras+Kravec+Jaskier+NewStudiо+BaibaKo+OmskBird+Kubik V Kube+Eng]+[Subs ENG]

Враг Нароода

1 | 0

27.55 ГБ

В этой теме нет новых непрочитанных сообщений. Орвилл / The Orville [2017] (Сезон 1 , Серия 1- 5 из 13) (Брэннон Брага, Джон Кассар) [Фантастика, драма, комедия , WEB-DLRip][1080p][LostFilm+AlexFilm+NewStudiо+Jaskier+ OMSKBIRD+BaibaKo+Kubik V Kube+Eng]+[Subs ENG]

Враг Нароода

0 | 0

21.53 ГБ


Начать новую тему Ответить на тему  [ 1 сообщение ] 




Для Мосгорсуда, Роскомнадзора и рекламодателей:: mosgorsud-torrent[собачка]yandex.ru