Торрент файл
скачать торрент магнет ссылка Добавлен: 12 фев 2017, 18:09
Размер: 3.51 ГБ
Сидеров: 75
Личеров: 28
Автор

СообщениеДобавлено: 12 фев 2017, 18:09 

Не в сети
Дата регистрации:
28 сен 2016, 18:10
Спасибо: 216 / 0
Сообщения: 1997
Информация о фильме
Название: Отец Браун / Патер Браун
Оригинальное название: Father Brown
Год выхода: 2017
Жанр: Детектив, драма
Режиссер: Айэн Барбер, Доминик Киви, Мэтт Картер
В ролях: Марк Уильямс, Нэнси Кэролл, Сорча Кьюсак, Хьюго Спир, Алекс Прайс, Том Чамберс, Джон Лайт, Джон Бертон, Кит Осборн, Джеймс Расталл, Джастин Эдвардс, Дэвид Колдер, Кэти Льюнг и др.
О фильме:
Британский сериал снят по мотивам рассказов классика детективного жанра Гилберта Кейта Честертона. Отец Браун (Марк Уильямс) – священник с ничем не примечательной внешностью, но острым, как бритва, умом и поразительным умением разбираться в психологии человека. Именно эти качества помогают ему разбираться в преступлениях, которые время от времени происходят в одном тихом уголке Англии середины 1950-х годов.

Страна: Великобритания
Студия: ВВС
Продолжительность: ~ 00:53:00 серия
Перевод: Любительский (одноголосый закадровый) DexterTV
Файл
Кодек: XviD / MP3
Формат: AVI
Качество: HDTVRip
Видео: XviD, 720x400, 29.970 fps, 1101 kbps, 0.128 bit/pixel
Звук: MP3, 48 kHz, 2 ch, 192 kbps
Субтитры: Нет
Sample

Format : AVI
Format/Info : Audio Video Interleave
File size : 503 MiB
Duration : 53mn 50s
Overall bit rate : 1 305 Kbps
Writing application : VirtualDubMod 1.5.10.3 | www.virtualdub-fr.org || (build 2550/release)
Writing library : VirtualDub build 35576/release
Video
ID : 0
Format : MPEG-4 Visual
Format profile : Advanced Simple@L5
Format settings, BVOP : 1
Format settings, QPel : No
Format settings, GMC : No warppoints
Format settings, Matrix : Default (MPEG)
Codec ID : XVID
Codec ID/Hint : XviD
Duration : 53mn 50s
Bit rate : 1 101 Kbps
Width : 720 pixels
Height : 400 pixels
Display aspect ratio : 16:9
Frame rate : 29.970 (29970/1000) fps
Color space : YUV
Chroma subsampling : 4:2:0
Bit depth : 8 bits
Scan type : Progressive
Compression mode : Lossy
Bits/(Pixel*Frame) : 0.128
Stream size : 424 MiB (84%)
Writing library : XviD 1.2.1 (UTC 2008-12-04)
Audio
ID : 1
Format : MPEG Audio
Format version : Version 1
Format profile : Layer 3
Mode : Joint stereo
Codec ID : 55
Codec ID/Hint : MP3
Duration : 53mn 50s
Bit rate mode : Constant
Bit rate : 192 Kbps
Channel(s) : 2 channels
Sampling rate : 48.0 KHz
Compression mode : Lossy
Stream size : 73.9 MiB (15%)
Alignment : Split accross interleaves
Interleave, duration : 33 ms (1.00 video frame)
Interleave, preload duratio : 500 ms



Вернуться к началу
 Профиль Отправить личное сообщение  
 
   Похожие торренты   Автор   Торрент   Размер 
В этой теме нет новых непрочитанных сообщений. Отец Браун / Father Brown [03x01-15] (Йен Барбер, Мэтт Картер, Доминик Киви) [2015, драма, детектив, HDTVRip | ТВЦ]

Dracon

48 | 34

10.84 ГБ

В этой теме нет новых непрочитанных сообщений. Отец Браун / Father Brown [s01-03] (Айэн Барбер, Доминик Киви, Мэтт Картер) [Детектив, драма, 2013-2015] HDTVRip [ТВЦ]

Dracon

44 | 84

26.6 ГБ

В этой теме нет новых непрочитанных сообщений. Отец полицейского 2 / Father And Guns 2 / De père en flic 2 [комедия, 2017] HDRip, Mvo

salma3

55 | 3

1.46 ГБ

В этой теме нет новых непрочитанных сообщений. Отец полицейского 2 / Father And Guns 2 / De pere en flic 2 [комедия, 2017] HDRip, Mvo

salma3

112 | 24

1.46 ГБ

В этой теме нет новых непрочитанных сообщений. Закон и порядок: Специальный корпус / Law & Order: Special Victims Unit [S13] [Драма, криминал, детектив, 2011-2012] HDTVRip, Avo [DexterTV]

salma3

4 | 5

11.17 ГБ

В этой теме нет новых непрочитанных сообщений. Отец полицейского 2 / Father And Guns 2 / De père en flic 2 [комедия, 2017] BDRip 720p, Mvo

salma3

18 | 0

3.76 ГБ

В этой теме нет новых непрочитанных сообщений. Пространство / The Expanse [01х01-07 из 10] (Джейсон Ф Браун, Бен Кук, Шон Дэниэл) [2015-2016, Детектив, Мистика, Фантастика, WEB-DL 1080p | LostFilm]

Dracon

0 | 0

12.55 ГБ


Начать новую тему Ответить на тему  [ 1 сообщение ] 




Для Мосгорсуда, Роскомнадзора и рекламодателей:: mosgorsud-torrent[собачка]yandex.ru
cron