Торрент файл
скачать торрент магнет ссылка Добавлен: 12 фев 2017, 00:43
Размер: 1.47 ГБ
Сидеров: 143
Личеров: 19
Статус: (salma3)
Автор

СообщениеДобавлено: 12 фев 2017, 00:43 

В сети
Супермодератор
Аватара пользователя
Дата регистрации:
15 фев 2012, 16:44
Возраст: 28
Спасибо: 7165 / 2147
Сообщения: 61996
Режиссер: Виталий Бабенко
Жанр: драма, спорт
Продолжительность: 2 х ~ 00:48:00
Год выпуска: 2016

В ролях: Юрий Дейнекин, Владимир Виноградов, Иван Агапов, Василиса Измайлова, Алексей Виноградов (III), Александра Тулинова, Наталья Рычкова, Алексей Петрухин (II)

Описание: В юношескую футбольную команду приходит талантливый новичок Коля Ширяев. Дела у Коли «не фонтан» – отец в тюрьме, мать крутится на трёх работах, младший брат на попечении старшего. Любимый футбол – «свет в окошке». Чтобы попасть в клуб Премьер-Лиги, нужно «показаться» селекционерам. Ради этого Коля соглашается на допинг. Последствия приводят к жёсткому конфликту с тренером, драке с игроками, ссоре с девушкой и братом. Коля разбит морально и физически. Как жить дальше? Коле предстоит набраться мужества и признаться во всём тренеру, который не понаслышке знает о последствиях воздействия химии и сможет помочь парню выкарабкаться и достойно сыграть в решающем матче.



Формат: HDTVRip-AVC, MKV, H.264, AC3
Видео: 1024x576 (16:9), 25 fps, AVC MPEG-4 (x264), , ~ 2000 kbps avg, 0.136 bit/pixel
Аудио: 48 kHz, AC3, 2/0 (L,R) ch, ~192 kbps
Общее
Уникальный идентификатор : 207538359789255672425526547848784066561 (0x9C226F25F167279A91D81501FC093801)
Полное имя : C:\Chistyj futbol.(2016).HDTVRip.AVC.\01.Chistyj futbol.(2016).HDTVRip.AVC.mkv
Формат : Matroska
Версия формата : Version 2
Размер файла : 758 Мбайт
Продолжительность : 48 м. 20 с.
Общий поток : 2194 Кбит/сек
Дата кодирования : UTC 2017-02-10 14:12:41
Программа кодирования : mkvmerge v5.6.0 ('Kenya Kane') built on Jun 29 2012 15:01:44
Библиотека кодирования : libebml v1.2.3 + libmatroska v1.3.0

Видео
Идентификатор : 1
Формат : AVC
Формат/Информация : Advanced Video Codec
Профиль формата :
Параметр CABAC формата : Да
Параметр ReFrames формата : 9 кадров
Идентификатор кодека : V_MPEG4/ISO/AVC
Продолжительность : 48 м. 20 с.
Битрейт : 2000 Кбит/сек
Ширина : 1024 пикселя
Высота : 576 пикселей
Соотношение сторон : 16:9
Режим частоты кадров : Постоянный
Частота кадров : 25,000 кадров/сек
Цветовое пространство : YUV
Субдискретизация насыщенности : 4:2:0
Битовая глубина : 8 бит
Тип развёртки : Прогрессивная
Бит/(Пиксели*Кадры) : 0.136
Размер потока : 677 Мбайт (89%)
Библиотека кодирования : x264 core 125 r2200 999b753
Настройки программы : cabac=1 / ref=9 / deblock=1:-2:-1 / analyse=0x3:0x133 / me=umh / subme=9 / psy=1 / psy_rd=1.00:0.15 / mixed_ref=1 / me_range=32 / chroma_me=1 / trellis=2 / 8x8dct=1 / cqm=0 / deadzone=21,11 / fast_pskip=0 / chroma_qp_offset=-3 / threads=3 / lookahead_threads=1 / sliced_threads=0 / nr=0 / decimate=1 / interlaced=0 / bluray_compat=0 / constrained_intra=0 / bframes=9 / b_pyramid=2 / b_adapt=2 / b_bias=0 / direct=1 / weightb=1 / open_gop=0 / weightp=2 / keyint=250 / keyint_min=25 / scenecut=40 / intra_refresh=0 / rc=2pass / mbtree=0 / bitrate=2000 / ratetol=1.0 / qcomp=0.60 / qpmin=0 / qpmax=69 / qpstep=4 / cplxblur=20.0 / qblur=0.5 / ip_ratio=1.40 / pb_ratio=1.30 / aq=2:1.00
Default : Да
Forced : Нет
Цветовой диапазон : Limited
Основные цвета : BT.709
Характеристики трансфера : BT.709
Коэффициенты матрицы : BT.709

Аудио
Идентификатор : 2
Формат : AC-3
Формат/Информация : Audio Coding 3
Расширение режима : CM (complete main)
Параметр Endianness формата : Big
Идентификатор кодека : A_AC3
Продолжительность : 48 м. 20 с.
Вид битрейта : Постоянный
Битрейт : 192 Кбит/сек
Каналы : 2 канала
Расположение каналов : Front: L R
Частота : 48,0 КГц
Частота кадров : 31,250 кадров/сек (1536 spf)
Битовая глубина : 16 бит
Метод сжатия : С потерями
Размер потока : 66,4 Мбайт (9%)
Default : Да
Forced : Нет




_________________
Проголосуй за трекер Открытый торрент трекер - RUS-MEDIA.ORG

Проголосуй Открытый торрент трекер - RUS-MEDIA.ORG


Вернуться к началу
 Профиль Отправить личное сообщение  
 
   Похожие торренты   Автор   Торрент   Размер 
В этой теме нет новых непрочитанных сообщений. Чистый футбол / Штрафная (1-2 серии из 2) [драма, спорт, 2016] HDTVRip

salma3

946 | 221

1.2 ГБ

В этой теме нет новых непрочитанных сообщений. Чистый футбол (Драма, спорт, 2016) HDTVRip от R.G. Resident

marya111

72 | 16

1.45 ГБ

В этой теме нет новых непрочитанных сообщений. Военный фитнес (1-2 серии из 2) [спорт, мелодрама, спорт, мелодрама] HDTVRip

salma3

1257 | 135

1.32 ГБ

В этой теме нет новых непрочитанных сообщений. Дом странных детей Мисс Перегрин / Miss Peregrine's Home for Peculiar Children [фэнтези, драма, приключения, семейный, 2016] HDTVRip-AVC, Dub [чистый звук]

salma3

5748 | 1431

2.67 ГБ

В этой теме нет новых непрочитанных сообщений. Футбол. Чемпионат Германии 2016-17. 16-й тур. Обзор тура [22.12] (2016) HDTVRip 720p | 50 fps

salma3

97 | 28

1.51 ГБ

В этой теме нет новых непрочитанных сообщений. Футбол. Чемпионат Англии 2016-17. 17-й тур. Манчестер Сити - Арсенал [18.12] (2016) HDTVRip

salma3

20 | 5

1.34 ГБ

В этой теме нет новых непрочитанных сообщений. Футбол. Суперкубок Италии 2016. Финал. Ювентус - Милан [23.12] (2016) HDTVRip

salma3

50 | 12

1.94 ГБ


Начать новую тему Ответить на тему  [ 1 сообщение ] 




Для Мосгорсуда, Роскомнадзора и рекламодателей:: mosgorsud-torrent[собачка]yandex.ru
cron