Торрент файл
скачать торрент магнет ссылка Добавлен: 11 фев 2017, 15:31
Размер: 7.5 ГБ
Сидеров: 108
Личеров: 1700
Автор

СообщениеДобавлено: 11 фев 2017, 15:31 

Не в сети
Дата регистрации:
28 сен 2016, 18:10
Спасибо: 216 / 0
Сообщения: 1997
Информация о сериале
Название: Сверхъестественное
Оригинальное название: Supernatural
Год выпуска: 2016
Жанр: Ужасы, фэнтези, триллер, драма, детектив
Режиссер: Филип Сгриккиа, Джеймс Л. Конуэй, Питер Эллис
В ролях: Джаред Падалеки, Дженсен Эклс, Джим Бивер, Миша Коллинз, Марк Шеппард, Джеффри Дин Морган, Женевьев Падалеки, Синди Сэмпсон, Саманта Феррис, Митч Пиледжи
Описание сериала:
Зло снова начинает атаку со всех фронтов, а единственными кто способен противостоять, оказываются браться Сэм и Дин, с вида обыкновенные парни, но на самом деле обладающие всеми необходимыми навыками для борьбы со злом. Изначально борцом с потусторонними силами выступает их отец, у которого они впоследствии переняли эстафету. Исчадья ада давно охотятся на братьев, но раз за разом вынуждены испытывать неудачу. Апокалипсиса не избежать, если прекратить противостояние, поэтому главные герои снова принимаются за привычную работу в 12 сезоне сериала. Борьба Добра и Зла вновь набирает обороты.

Выпущено: США, Kripke Enterprises, Warner Bros. Television
Продолжительность: 11 x ~ 00:43:00
Перевод: Любительский (многоголосый) Sunshine Studio
Файл
Качество: HDTVRip (720p)
Видео: MPEG-4 AVC, ~ 2000 Кбит/с, 1280х720
Аудио: Русский (AC3, 2 ch, 192 Кбит/с)
Размер: 7.5 ГБ
Субтитры: Отсутствуют
Присутствует реклама!
General
Unique ID : 215591649970779032472114452452180142336 (0xA231710276F2EE5CB4BF9920CB3EA900)
Complete name : Supernatural.S12E01.720p.SunshineStudio.mkv
Format : Matroska
Format version : Version 4 / Version 2
File size : 726 MiB
Duration : 42mn 43s
Overall bit rate : 2 376 Kbps
Encoded date : UTC 2016-10-14 07:50:59
Writing application : mkvmerge v8.3.0 ('Over the Horizon') 64bit
Writing library : libebml v1.3.1 + libmatroska v1.4.2
Video
ID : 1
Format : AVC
Format/Info : Advanced Video Codec
Format profile : High@L3.1
Format settings, CABAC : Yes
Format settings, ReFrames : 4 frames
Codec ID : V_MPEG4/ISO/AVC
Duration : 42mn 43s
Bit rate : 2 136 Kbps
Width : 1 280 pixels
Height : 720 pixels
Display aspect ratio : 16:9
Frame rate mode : Constant
Frame rate : 23.976 fps
Color space : YUV
Chroma subsampling : 4:2:0
Bit depth : 8 bits
Scan type : Progressive
Bits/(Pixel*Frame) : 0.097
Stream size : 653 MiB (90%)
Writing library : x264 core 146 r2538 121396c
Encoding settings : cabac=1 / ref=1 / deblock=1:0:0 / analyse=0x3:0x113 / me=hex / subme=2 / psy=1 / psy_rd=1.00:0.00 / mixed_ref=0 / me_range=16 / chroma_me=1 / trellis=0 / 8x8dct=1 / cqm=0 / deadzone=21,11 / fast_pskip=1 / chroma_qp_offset=0 / threads=9 / lookahead_threads=3 / sliced_threads=0 / nr=0 / decimate=1 / interlaced=0 / bluray_compat=0 / constrained_intra=0 / bframes=3 / b_pyramid=2 / b_adapt=1 / b_bias=0 / direct=1 / weightb=1 / open_gop=0 / weightp=1 / keyint=250 / keyint_min=23 / scenecut=40 / intra_refresh=0 / rc_lookahead=10 / rc=crf / mbtree=1 / crf=18.0 / qcomp=0.60 / qpmin=0 / qpmax=69 / qpstep=4 / ip_ratio=1.40 / aq=1:1.00
Default : Yes
Forced : No
Audio
ID : 2
Format : AC-3
Format/Info : Audio Coding 3
Mode extension : CM (complete main)
Format settings, Endianness : Big
Codec ID : A_AC3
Duration : 42mn 43s
Bit rate mode : Constant
Bit rate : 192 Kbps
Channel(s) : 2 channels
Channel positions : Front: L R
Sampling rate : 48.0 KHz
Bit depth : 16 bits
Compression mode : Lossy
Stream size : 58.7 MiB (8%)
Default : Yes
Forced : No

Релиз от:



Вернуться к началу
 Профиль Отправить личное сообщение  
 
   Похожие торренты   Автор   Торрент   Размер 
В этой теме нет новых непрочитанных сообщений. Сверхъестественное / Supernatural [12х01-04 из 24] (Ужасы, фэнтези, триллер, драма, детектив, 2016) HDTVRip 720p | LevshaFilm

marya111

1 | 3

2.85 ГБ

В этой теме нет новых непрочитанных сообщений. Сверхъестественное / Supernatural [S13] [Ужасы, фэнтези, триллер, 2017] HDTVRip 720p, Dvo [SunshineStudio]

salma3

0 | 0

16.54 ГБ

В этой теме нет новых непрочитанных сообщений. Сверхъестественное / Supernatural [12х01-08 из 24] (2016) HDTVRip 720p | LevshaFilm

marya111

8 | 29

5.63 ГБ

В этой теме нет новых непрочитанных сообщений. Сверхъестественное / Supernatural [12х01-08] (Фантастика, мистика, ужасы, триллер, драма, 2016) WEB-DLRip | NovaFilm

marya111

56 | 159

3.67 ГБ

В этой теме нет новых непрочитанных сообщений. Сверхъестественное / Supernatural [12x01-08 из 23] (Ужасы, фэнтези, триллер, драма, детектив, 2016) WEB-DLRip 720p | IdeaFilm

marya111

24 | 76

10.61 ГБ

В этой теме нет новых непрочитанных сообщений. Сверхъестественное / Supernatural [12x01-09 из 23] (Ужасы, фэнтези, триллер, драма, детектив, 2016) WEB-DLRip 720p | IdeaFilm

marya111

10 | 91

11.98 ГБ

В этой теме нет новых непрочитанных сообщений. Сверхъестественное / Supernatural [12х01-07] (2016) HDTVRip | DreamRecords

marya111

198 | 977

3.1 ГБ


Начать новую тему Ответить на тему  [ 1 сообщение ] 




Для Мосгорсуда, Роскомнадзора и рекламодателей:: mosgorsud-torrent[собачка]yandex.ru
cron