Торрент файл
скачать торрент магнет ссылка Добавлен: 05 фев 2017, 02:39
Размер: 12.3 ГБ
Сидеров: 116
Личеров: 23
Статус: (salma3)
Автор

СообщениеДобавлено: 05 фев 2017, 02:39 

Не в сети
Супермодератор
Аватара пользователя
Дата регистрации:
15 фев 2012, 16:44
Возраст: 28
Спасибо: 7284 / 2147
Сообщения: 70226
Перевод: Не требуется, cубтитры: отсутствуют
Страна: Россия
Режиссер: Мичислав Юзовский
Жанр: детектив, криминал
Всего серий: 20
Продолжительность: 20 х 00:44:00
Год выпуска: 2016

В ролях: Роман Мадянов, Владимир Яглыч, Леонид Кулагин, Наталия Антонова, Светлана Устинова, Михаил Жигалов, Ирина Ефремова (II), Сергей Букреев, Дмитрий Мазуров, Константин Гацалов, Елена Коровчук,

Описание:
В одно из районных отделений полиции города Севастополя командируют из Москвы молодого следователя – майора Александра Демина (Владимир Яглыч). Одновременно с Деминым в город прилетают и московские бандиты, которые собираются устроить передел власти в городе. Их главная цель – контроль над портом. С момента появления столичных гостей Севастополь захлестывает волна убийств, на первый взгляд никак не связанных между собой. Также по городу начинает распространяться новый сильнодействующий наркотик, который не оставляет в организме следов. Расследованием участившихся в городе преступлений поручают заниматься Александру Демину и опытному оперативнику с большим стажем – следователю Александру Шестопалову (Роман Мадянов). В отделе их сразу же называют «Саша добрый» и «Саша злой». Но отношения новых коллег складываются непросто. У них кардинально разные взгляды и подход к делу. Сторожил Шестопалов, всю жизнь проработавший в Севастополе, не понаслышке знаком с криминальным миром города. Чрезмерно проницательный и удачливый Демин кажется ему подозрительным. Шестопалов не спешит доверять молодому следователю и ведет собственное расследование. К тому же вскоре становится понятно, что в отделе завелся «крот». В личной жизни Шестопалова тоже все непросто. У него давний роман с женой начальника порта Татьяной Кошелевой (Ирина Ефремова). Его жена Евгения (Наталья Антонова) подозревает мужа в измене, но молчит. У нее есть тайна, которую она скрывает от мужа много лет.


Формат: WEB-DLRip-AVC, MKV, H.264, AC3

Видео: 1024x576 (16:9), 25 fps, AVC MPEG-4 (x264), , ~ 1800 kbps avg, 0.122 bit/pixel
Аудио: 48 kHz, AC3, 2/0 (L,R) ch, ~192.00 kbps avg

Общее
Уникальный идентификатор : 187321696181699952423160904303264696654 (0x8CECD8AD1432B641933325489B28894E)
Полное имя : D:Sasha.Dobry.Sasha.Zloy.2016.WEB-DLRip(AVC).1.Sasha.Dobry.Sasha.Zloy.2016.WEB-DLRip(AVC).mkv
Формат : Matroska
Версия формата : Version 2
Размер файла : 626 Мбайт
Продолжительность : 43 м.
Общий поток : 1993 Кбит/сек
Дата кодирования : UTC 2017-01-17 16:40:32
Программа кодирования : mkvmerge v7.8.0 ('River Man') 32bit built on Apr 3 2015 12:11:22
Библиотека кодирования : libebml v1.3.1 + libmatroska v1.4.2

Видео
Идентификатор : 1
Формат : AVC
Формат/Информация : Advanced Video Codec
Профиль формата :
Параметр CABAC формата : Да
Параметр ReFrames формата : 10 кадров
Идентификатор кодека : V_MPEG4/ISO/AVC
Продолжительность : 43 м.
Битрейт : 1800 Кбит/сек
Ширина : 1024 пикселя
Высота : 576 пикселей
Соотношение сторон : 16:9
Режим частоты кадров : Постоянный
Частота кадров : 25,000 кадров/сек
Цветовое пространство : YUV
Субдискретизация насыщенности : 4:2:0
Битовая глубина : 8 бит
Тип развёртки : Прогрессивная
Бит/(Пиксели*Кадры) : 0.122
Размер потока : 553 Мбайт (88%)
Библиотека кодирования : x264 core 146 r2538 121396c
Настройки программы : cabac=1 / ref=10 / deblock=1:-3:-3 / analyse=0x3:0x133 / me=umh / subme=10 / psy=1 / psy_rd=1.00:0.03 / mixed_ref=1 / me_range=48 / chroma_me=1 / trellis=2 / 8x8dct=1 / cqm=0 / deadzone=21,11 / fast_pskip=0 / chroma_qp_offset=-3 / threads=6 / lookahead_threads=1 / sliced_threads=0 / nr=0 / decimate=0 / interlaced=0 / bluray_compat=0 / constrained_intra=0 / bframes=10 / b_pyramid=2 / b_adapt=2 / b_bias=0 / direct=3 / weightb=1 / open_gop=0 / weightp=2 / keyint=250 / keyint_min=25 / scenecut=40 / intra_refresh=0 / rc_lookahead=40 / rc=2pass / mbtree=0 / bitrate=1800 / ratetol=1.0 / qcomp=0.60 / qpmin=0 / qpmax=69 / qpstep=4 / cplxblur=20.0 / qblur=0.5 / vbv_maxrate=50000 / vbv_bufsize=62500 / nal_hrd=none / filler=0 / ip_ratio=1.40 / pb_ratio=1.30 / aq=1:1.00
Default : Да
Forced : Нет

Аудио
Идентификатор : 2
Формат : AC-3
Формат/Информация : Audio Coding 3
Расширение режима : CM (complete main)
Параметр Endianness формата : Big
Идентификатор кодека : A_AC3
Продолжительность : 43 м.
Вид битрейта : Постоянный
Битрейт : 192 Кбит/сек
Каналы : 2 канала
Расположение каналов : Front: L R
Частота : 48,0 КГц
Битовая глубина : 16 бит
Метод сжатия : С потерями
Размер потока : 60,3 Мбайт (10%)
Default : Да
Forced : Нет




_________________
Проголосуй за трекер Открытый торрент трекер - RUS-MEDIA.ORG

Проголосуй Открытый торрент трекер - RUS-MEDIA.ORG


Вернуться к началу
 Профиль Отправить личное сообщение  
 
   Похожие торренты   Автор   Торрент   Размер 
В этой теме нет новых непрочитанных сообщений. Саша добрый, Саша злой (1-20 серии из 20) [детектив, криминал, 2015] WEB-DLRip

salma3

410 | 124

8.72 ГБ

В этой теме нет новых непрочитанных сообщений. Саша добрый, Саша злой [1-18 серия из 20] [Детектив, 2016] HDTVRip 720p

Dracon

0 | 0

9.96 ГБ

В этой теме нет новых непрочитанных сообщений. Саша добрый, Саша злой [1-20 серия из 20] [Детектив, 2016] HDTVRip

Dracon

60 | 52

10.72 ГБ

В этой теме нет новых непрочитанных сообщений. Саша добрый, Саша злой [01-06 из 12] ( Детектив, 2016) HDTVRip от Files-x

marya111

95 | 18

3.2 ГБ

В этой теме нет новых непрочитанных сообщений. Любопытная Варвара [S01] (Саша Кириенко) [Детектив, комедия, мелодрама, 2012] WEB-DL 1080p

Dracon

6 | 7

12 ГБ

В этой теме нет новых непрочитанных сообщений. Саша порется с приятелем (2017) CamRip

Dievas

142 | 8

138.95 МБ

В этой теме нет новых непрочитанных сообщений. Саша трахается с приятелем (2017) CamRip

Dievas

186 | 6

157.46 МБ


Начать новую тему Ответить на тему  [ 1 сообщение ] 




Для Мосгорсуда, Роскомнадзора и рекламодателей:: mosgorsud-torrent[собачка]yandex.ru
cron