Торрент файл
скачать торрент магнет ссылка Добавлен: 05 фев 2017, 02:30
Размер: 11.58 ГБ
Сидеров: 65
Личеров: 29
Статус: (salma3)
Автор

СообщениеДобавлено: 05 фев 2017, 02:30 

Не в сети
Супермодератор
Аватара пользователя
Дата регистрации:
15 фев 2012, 16:44
Возраст: 28
Спасибо: 7205 / 2147
Сообщения: 65364
Перевод: Не требуется, cубтитры: отсутствуют
Страна: Россия
Режиссер: Андрей Селиванов, Юлия Краснова
Жанр: драма, мелодрама
Всего серий: 16
Продолжительность: 16 х ~ 00:50:00
Год выпуска: 2016

В ролях: Максим Аверин, Мария Куликова, Елена Яковлева, Анна Якунина, Владимир Жеребцов, Мария Рыщенкова, Александр Сирин, Антон Эльдаров, Екатерина Травова, Константин Юшкевич,

Описание:
После взрыва в финале предыдущего сезона жизнь Олега Брагина, талантливого хирурга, оказывается под угрозой. Однако коллегам удается спасти Брагина, правда, Олег перенес сложную операцию, после которой на некоторое время впал в кому. Он потихоньку восстанавливает свои сил. Вокруг все говорят, что Брагин — настоящий герой. Все, кроме одного человека: жены Олега Нарочинской, которая не может простить возлюбленному его поступок. Она бросает Брагина и намерена развестись с ним. Чтобы вернуть свою любовь, Олег должен кардинально поменять свой образ жизни, и тогда, возможно, у него появится возможность вернуть Марину.



Формат: WEB-DLRip-AVC, MKV, H.264, AC3
Видео: 1024x576 (16:9), 25 fps, AVC MPEG-4 (x264), , ~ 1600 kbps avg, 0.109 bit/pixel
Аудио: 44 kHz, АС3, 2/0 (L,R), ~192.00 kbps avg
Общее
Уникальный идентификатор : 186330157387183969274677804812142687272 (0x8C2DE20A05D8E3EE993B89419278B428)
Полное имя : C:\Склифосовский. Реанимация.(2016).WEB-DLRip.(AVC).\01.Склифосовский. Реанимация (2016).WEB-DLRip.(AVC).mkv
Формат : Matroska
Версия формата : Version 2
Размер файла : 731 Мбайт
Продолжительность : 57 м. 3 с.
Общий поток : 1791 Кбит/сек
Дата кодирования : UTC 2017-01-17 03:02:38
Программа кодирования : mkvmerge v7.8.0 ('River Man') 32bit built on Apr 3 2015 12:11:22
Библиотека кодирования : libebml v1.3.1 + libmatroska v1.4.2

Видео
Идентификатор : 1
Формат : AVC
Формат/Информация : Advanced Video Codec
Профиль формата :
Параметр CABAC формата : Да
Параметр ReFrames формата : 9 кадров
Идентификатор кодека : V_MPEG4/ISO/AVC
Продолжительность : 57 м. 3 с.
Битрейт : 1600 Кбит/сек
Ширина : 1024 пикселя
Высота : 576 пикселей
Соотношение сторон : 16:9
Режим частоты кадров : Постоянный
Частота кадров : 25,000 кадров/сек
Цветовое пространство : YUV
Субдискретизация насыщенности : 4:2:0
Битовая глубина : 8 бит
Тип развёртки : Прогрессивная
Бит/(Пиксели*Кадры) : 0.109
Размер потока : 638 Мбайт (87%)
Библиотека кодирования : x264 core 146 r2538 121396c
Настройки программы : cabac=1 / ref=9 / deblock=1:-2:-1 / analyse=0x3:0x113 / me=umh / subme=9 / psy=1 / psy_rd=1.00:0.15 / mixed_ref=1 / me_range=32 / chroma_me=1 / trellis=2 / 8x8dct=1 / cqm=0 / deadzone=21,11 / fast_pskip=0 / chroma_qp_offset=-3 / threads=6 / lookahead_threads=1 / sliced_threads=0 / nr=0 / decimate=1 / interlaced=0 / bluray_compat=0 / constrained_intra=0 / bframes=9 / b_pyramid=2 / b_adapt=2 / b_bias=0 / direct=1 / weightb=1 / open_gop=0 / weightp=2 / keyint=250 / keyint_min=25 / scenecut=40 / intra_refresh=0 / rc_lookahead=50 / rc=2pass / mbtree=0 / bitrate=1600 / ratetol=1.0 / qcomp=0.60 / qpmin=0 / qpmax=69 / qpstep=4 / cplxblur=20.0 / qblur=0.5 / vbv_maxrate=14000 / vbv_bufsize=14000 / nal_hrd=none / filler=0 / ip_ratio=1.40 / pb_ratio=1.30 / aq=2:1.00
Default : Да
Forced : Нет
Цветовой диапазон : Limited
Основные цвета : BT.709
Характеристики трансфера : BT.709
Коэффициенты матрицы : BT.709

Аудио
Идентификатор : 2
Формат : AC-3
Формат/Информация : Audio Coding 3
Расширение режима : CM (complete main)
Параметр Endianness формата : Big
Идентификатор кодека : A_AC3
Продолжительность : 57 м. 3 с.
Вид битрейта : Постоянный
Битрейт : 192 Кбит/сек
Каналы : 2 канала
Расположение каналов : Front: L R
Частота : 44,1 КГц
Частота кадров : 28,711 кадров/сек (1536 spf)
Битовая глубина : 16 бит
Метод сжатия : С потерями
Размер потока : 78,3 Мбайт (11%)
Default : Да
Forced : Нет




_________________
Проголосуй за трекер Открытый торрент трекер - RUS-MEDIA.ORG

Проголосуй Открытый торрент трекер - RUS-MEDIA.ORG


Вернуться к началу
 Профиль Отправить личное сообщение  
 
   Похожие торренты   Автор   Торрент   Размер 
В этой теме нет новых непрочитанных сообщений. Склифосовский / Склиф / Реанимация (5 сезон: 1-16 серии из 16) [драма, мелодрама, 2016] WEB-DLRip

salma3

300 | 138

10.6 ГБ

В этой теме нет новых непрочитанных сообщений. Склифосовский. Реанимация [Сезон 5 / Серия 16] [2017, Мелодрама] SATRip

Dracon

288 | 334

10.86 ГБ

В этой теме нет новых непрочитанных сообщений. Склифосовский. Реанимация [01-10 из 16] (2016) SATRip-AVC от Korsar

marya111

28 | 21

5.83 ГБ

В этой теме нет новых непрочитанных сообщений. Склифосовский. Реанимация [01-12 из 16] (2016) SATRip-AVC от Korsar

marya111

151 | 130

7.01 ГБ

В этой теме нет новых непрочитанных сообщений. Склифосовский [S05] (Драма, мелодрама, 2016) WEB-DLRip от Generalfilm | КПК

marya111

108 | 66

3.46 ГБ

В этой теме нет новых непрочитанных сообщений. Реанимация / Code Black [1 сезон 1-16 серии из 18] (Девид Семел) [2015, Драма, Медицина, WEB-DLRip | IDEAFILM]

Nickolas3435

0 | 1

7.34 ГБ

В этой теме нет новых непрочитанных сообщений. Реанимация / Чёрный код / Code Black [02х01-11 из 18] (драма, 2016) WEB-DLRip от GeneralFilm | BaibaKo

marya111

19 | 37

4.93 ГБ


Начать новую тему Ответить на тему  [ 1 сообщение ] 




Для Мосгорсуда, Роскомнадзора и рекламодателей:: mosgorsud-torrent[собачка]yandex.ru
cron