Торрент файл
скачать торрент магнет ссылка Добавлен: 05 фев 2017, 02:13
Размер: 9.95 ГБ
Сидеров: 211
Личеров: 95
Статус: (salma3)
Автор

СообщениеДобавлено: 05 фев 2017, 02:13 

Не в сети
Супермодератор
Аватара пользователя
Дата регистрации:
15 фев 2012, 16:44
Возраст: 28
Спасибо: 7204 / 2147
Сообщения: 65204
Перевод: Не требуется, cубтитры: отсутствуют
Страна: Россия
Режиссер: Сергей Кожевников (II)
Жанр: драма, военный
Всего серий: 8
Продолжительность: 8 x ~ 00:52:00
Год выпуска: 2014

В ролях: Владислав Резник, Светлана Антонова, Сергей Угрюмов, Егор Баринов, Роман Богданов, Владимир Щербаков, Алексей Потапкин, Алексей Горячев, Александр Андриенко, Максим Битюков,

Описание:
В начале войны Николай Кузнецов был заброшен в тыл врага. За время разведывательной деятельности он лично ликвидировал 11 генералов и высокопоставленных чиновников оккупационной администрации нацистской Германии. Посмертно ему было присвоено звание Героя Советского Союза. Фильм раскрывает психологические переживания главного героя, его внутренние конфликты и показывает осмысление им многих событий войны в период 1941-44-х годов. С одной стороны Кузнецов - убежденный советский патриот, а с другой - человек, способный до такой степени принять на себя "личину" врага, что она становится его вторым "я". По словам самого Николая Кузнецова: "Разведка - нечеловеческое дело, она калечит душу...".



Формат: WEB-DL, MKV, VPx, AC3
Видео: 1280х720 (16:9), 24 fps, AVC ~3157 kbps avg, 0.143 bit/pixel
Аудио: 48 kHz, Ас3, 2 ch, (Front: L R) ~192.00 kbps avg

Общее
Полное имя : F:\Фильмы торренты\Po.lezviju.britvy.2013.WEB-DL.(720p).MediaClub\Po.lezviju.britvy.(01.seriya.iz.08).2013.WEB-DL.(720p).MediaClub.mkv
Формат : Matroska
Версия формата : Version 2
Размер файла : 1,24 Гбайт
Продолжительность : 51 м.
Режим общего битрейта : Переменный
Общий поток : 3417 Кбит/сек
Название фильма : Po.lezviju.britvy.(01.seriya.iz.08).2014.WEB-DL.(720p).MediaClub
Дата кодирования : UTC 2015-09-14 03:06:18
Программа кодирования : mkvmerge v5.8.0 ('No Sleep / Pillow') built on Sep 2 2012 15:37:04
Библиотека кодирования : libebml v1.2.3 + libmatroska v1.3.0

Видео
Идентификатор : 1
Формат : AVC
Формат/Информация : Advanced Video Codec
Профиль формата :
Параметр CABAC формата : Да
Параметр ReFrames формата : 5 кадров
Параметр GOP формата : M=2, N=15
Идентификатор кодека : V_MPEG4/ISO/AVC
Продолжительность : 51 м.
Вид битрейта : Переменный
Битрейт : 3157 Кбит/сек
Максимальный битрейт : 40,0 Мбит/сек
Ширина : 1280 пикселей
Высота : 720 пикселей
Соотношение сторон : 16:9
Режим частоты кадров : Постоянный
Частота кадров : 24,000 кадра/сек
Цветовое пространство : YUV
Субдискретизация насыщенности : 4:2:0
Битовая глубина : 8 бит
Тип развёртки : Прогрессивная
Бит/(Пиксели*Кадры) : 0.143
Размер потока : 1,14 Гбайт (92%)
Default : Да
Forced : Да

Аудио
Идентификатор : 2
Формат : AC-3
Формат/Информация : Audio Coding 3
Расширение режима : CM (complete main)
Параметр Endianness формата : Big
Идентификатор кодека : A_AC3
Продолжительность : 51 м.
Вид битрейта : Постоянный
Битрейт : 192 Кбит/сек
Каналы : 2 канала
Расположение каналов : Front: L R
Частота : 48,0 КГц
Битовая глубина : 16 бит
Метод сжатия : С потерями
Размер потока : 71,2 Мбайт (6%)
Язык : Russian
Default : Да
Forced : Да




_________________
Проголосуй за трекер Открытый торрент трекер - RUS-MEDIA.ORG

Проголосуй Открытый торрент трекер - RUS-MEDIA.ORG


Вернуться к началу
 Профиль Отправить личное сообщение  
 
   Похожие торренты   Автор   Торрент   Размер 
В этой теме нет новых непрочитанных сообщений. Бритвы / Razors: The Return of Jack the Ripper [ужасы, триллер, детектив, 2016] WEB-DLRip, Mvo

salma3

261 | 26

1.36 ГБ

В этой теме нет новых непрочитанных сообщений. Французская сюита / Suite française (Сол Дибб) [драма, мелодрама, военный, 2014] BDRip 720p [ColdFilm]

Dracon

8 | 2

5.37 ГБ

В этой теме нет новых непрочитанных сообщений. Бегущий по лезвию / Blade Runner [Фантастика, триллер, 1982] BDRip 720p, Dub [Финальная версия]

salma3

0 | 0

12.02 ГБ

В этой теме нет новых непрочитанных сообщений. Каджаки: Правдивая история / Kajaki (Пол Катис) [триллер, драма, приключения, военный, 2014] BDRip 720p [Lucky Strike]

Dracon

15 | 2

6.21 ГБ

В этой теме нет новых непрочитанных сообщений. Бегущий по лезвию 2049 / Blade Runner 2049 [Фантастика, триллер, 2017] BDRip 720p, Dub

salma3

0 | 0

11.64 ГБ

В этой теме нет новых непрочитанных сообщений. Бегущий по лезвию 2049 / Blade Runner 2049 [фантастика, триллер, 2017] BDRip 720p, Dub [Лицензия]

salma3

493 | 53

8.72 ГБ

В этой теме нет новых непрочитанных сообщений. Бегущий по лезвию / Blade Runner [фантастика, киберпанк, драма, 1982] BDRip-HEVC 1080p, Dub [Final Cut]

salma3

226 | 33

5.84 ГБ


Начать новую тему Ответить на тему  [ 1 сообщение ] 




Для Мосгорсуда, Роскомнадзора и рекламодателей:: mosgorsud-torrent[собачка]yandex.ru
cron