Торрент файл
скачать торрент магнет ссылка Добавлен: 10 фев 2017, 00:04
Размер: 17.29 ГБ
Сидеров: 0
Личеров: 0
Автор

СообщениеДобавлено: 24 янв 2017, 20:29 

Не в сети
Аватара пользователя
Дата регистрации:
09 авг 2014, 12:07
Спасибо: 63 / 1
Сообщения: 228
Откуда: КРАСНОГОРСК


Лемони Сникет: 33 несчастья / A Series of Unfortunate Events Сезон 1, Серия 1-8 из 8



Год выпуска: 2017
Выпущено: США, NetFlix, Paramount Television
Жанр: Драма, приключения, семейный
Продолжительность: 00:50:00
Сезон:1
Серия: 1-8
Количество серий в сезоне: 8

Озвучка 1: Профессиональный многоголосый - AlexFilm -Русский

Озвучка2: Профессиональный многоголосый - LostFilm -Русский

Озвучка3: Профессиональный многоголосый - Jaskier -Русский

Озвучка4: Профессиональный многоголосый - NewStudio -Русский

Озвучка 5: Профессиональный многоголосый - Английский - Оригинал

Субтитры: : Русские,Английские


Официальный сайт

MDB

Сценаристы:
Дэвид Шульнер, Мэттью Арнольд, Джош Фридман, Лаймен Фрэнк Баум

Режиссеры:
Дэниэл Хэндлер, Эмили Фокс, Джек Кенни

Актеры:
Нил Патрик Харрис (граф Олаф), Патрик Варбертон (Лемони Сникет), Малина Вайсман (Вайолет Бодлер), Луи Хайнс (Клаус Бодлер), Присли Смит (Солнышко Бодлер), Джоан Кьюсак (Юстиция Штраус), Элфри Вудард (тетя Жозефина), К. Тодд Фриман (мистер По), Аасиф Мандви (дядя Монти)(Тип))



О сериале "Лемони Сникет: 33 несчастья":

«Лемони Сникет: 33 несчастья» — экранизация книг Дэниэла Хэндлера, в которых трое сирот изо всех сил стараются выжить, а их опекун, вероломный граф Олаф, не менее старательно пытается завладеть их наследством. Вас ждет мир с неповторимой атмосферой, которая будто создана мрачным Тимом Бертоном и ироничным Уэсом Андерсоном. В сериале фонетический каламбур соседствует с мрачными шутками, а карикатурные персонажи — с локациями, похожими на места из книг Льюиса Кэрролла. Сюжет петляет от порога к порогу, а рассказчик тем временем разрушает «четвертую стену», обращаясь напрямую к публике. Все это происходит под ужимки, танцы и бесконечные перевоплощения многократного лауреата премии «Эмми» Нила Патрика Харриса, которому продюсеры «33 несчастий» предоставили полный карт-бланш. С клиповым монтажом и без того гротескные ситуации, в которые попадают герои, становятся чем-то нереальным, но очень притягательным, несмотря на попытки авторов отговорить зрителей от просмотра. Жанр шоу можно в равной степени определить как облегченную версию сказок братьев Гримм и пародию на современный мир, в котором взрослые патологически не верят детям.

Сюжет:

После произошедшего в поместье Бодлеров ужасного пожара дети — Вайолет, Клаус и малолетняя Солнышко — остаются сиротами. Согласно завещанию родителей, опеку над ними получает ближайший родственник. Им оказывается эгоистичный и алчный актер граф Олаф, которому плевать на детей, чистоту и порядок в собственном доме, окружающих людей — на все, кроме денег. Он знает, что старшие Бодлеры завещали своим чадам солидное наследство, и именно на него положил глаз недобросовестный опекун. Пока сиротки в поте лица выполняют все прихоти властного и вечно недовольного графа, он раздумывает, как бы поскорее заполучить их средства. Но загвоздка заключается в том, что банк не выдаст ни доллара, пока самой старшей из ребят, Вайолет, не исполнится 18 лет. Это значит, что Олафу придется использовать все свое коварство и хитроумие, чтобы поскорее оставить Бодлеров нищими и избавиться от них. Однако он даже не догадывается, с какими умными детьми имеет дело. Как не подозревает граф и о том, что остались еще на свете люди, готовые постоять за несчастных сирот.





Качество :WEB-DLRip 720p
Формат: MKV
Видео кодек: H264
Видео: 4108Kбит/сек,1280х720(16.9),в 25.000кадр/сек,AVC(Baseline@L3.1)(1Ref Frames)
Аудио Кодек:AC3

Аудио #1:AC3 , 384 Kbps, 48.0 KHz, 6 ch- AlexFilm -Русский

Аудио #2:AC3 , 384 Kbps, 48.0 KHz, 6 ch- LostFilm -Русский

Аудио #3:AC3 , 384 Kbps, 48.0 KHz, 6 ch- Jaskier -Русский

Аудио #4:AC3 , 384 Kbps, 48.0 KHz, 6 ch- NewStudio -Русский

Аудио #2: AC3, 640 Kbps, 48.0 KHz,6 ch - - English - Оригинал

Звуковая дорожка сделана путем наложения чистого голоса озвучивателей на центральный канал оригинальной дорожки. Качество идентично звуковой дорожке.



01 Скверное начало. Часть первая(The Bad Beginning: Part One)
02 Скверное начало. Часть вторая(The Bad Beginning: Part Two)
03 Змеиный зал. Часть первая(The Reptile Room: Part One)
04 Змеиный зал. Часть вторая(The Reptile Room: Part Two)
05 Огромное Окно: Часть Первая( The Wide Window: Part One)
06 Огромное Окно: Часть Вторая( The Wide Window: Part Two)
07 Лесопилка Лиха: Часть Первая(The Miserable Mill: Part One)
08 Лесопилка Лиха: Часть Вторая(The Miserable Mill: Part Two)



Общее
Уникальный идентификатор : 173688588068894968392482156576754656661 (0x82AB348CF82B08BCBF4522E517B46595)
Полное имя : D:\ПИРАТИЯ(PIRATIYA)\Лемони Сникет 33 несчастья (A Series of Unfortunate Events)\A.Series.of.Unfortunate.Events.2017.S01.N.B.WEB-DL.720.4xRus.Eng\A.Series.of.Unfortunate.Events.S01E01.N.B.WEB-DL.720.4xRus.Eng.mkv
Формат : Matroska
Версия формата : Version 4 / Version 2
Размер файла : 2,15 Гбайт
Продолжительность : 49 м. 42 с.
Режим общего битрейта : Переменный
Общий поток : 6197 Кбит/сек
Название фильма : A.Series.of.Unfortunate.Events.S01E01.N.B.WEB-DL.720.4xRus.Eng
Дата кодирования : UTC 2017-01-23 05:29:20
Программа кодирования : mkvmerge v9.7.1 ('Pandemonium') 64bit
Библиотека кодирования : libebml v1.3.4 + libmatroska v1.4.5

Видео
Идентификатор : 1
Формат : AVC
Формат/Информация : Advanced Video Codec
Профиль формата : Baseline@L3.1
Параметр CABAC формата : Нет
Параметр ReFrames формата : 1 кадр
Параметр GOP формата : M=1, N=12
Идентификатор кодека : V_MPEG4/ISO/AVC
Продолжительность : 48 м. 49 с.
Вид битрейта : Переменный
Битрейт : 4108 Кбит/сек
Максимальный битрейт : 6000 Кбит/сек
Ширина : 1280 пикселей
Высота : 720 пикселей
Соотношение сторон : 16:9
Режим частоты кадров : Постоянный
Частота кадров : 25,000 кадров/сек
Частота кадров в оригинале : 24,000 кадра/сек
Цветовое пространство : YUV
Субдискретизация насыщенности : 4:2:0
Битовая глубина : 8 бит
Тип развёртки : Прогрессивная
Бит/(Пиксели*Кадры) : 0.178
Размер потока : 1,40 Гбайт (65%)
Заголовок : A.Series.of.Unfortunate.Events.S01E01.N.B.WEB-DL.720.4xRus.Eng
Язык : Russian
Default : Да
Forced : Нет

Аудио #1
Идентификатор : 5
Формат : AC-3
Формат/Информация : Audio Coding 3
Расширение режима : CM (complete main)
Параметр Endianness формата : Big
Идентификатор кодека : A_AC3
Продолжительность : 49 м. 42 с.
Вид битрейта : Постоянный
Битрейт : 384 Кбит/сек
Каналы : 6 каналов
Расположение каналов : Front: L C R, Side: L R, LFE
Частота : 48,0 КГц
Частота кадров : 31,250 кадров/сек (1536 spf)
Битовая глубина : 16 бит
Метод сжатия : С потерями
Размер потока : 137 Мбайт (6%)
Заголовок : MVO AlexFilm @DD5.1 AC3, 384 Kbps, 48.0 KHz, 6 ch
Язык : Russian
Default : Да
Forced : Нет

Аудио #2
Идентификатор : 6
Формат : AC-3
Формат/Информация : Audio Coding 3
Расширение режима : CM (complete main)
Параметр Endianness формата : Big
Идентификатор кодека : A_AC3
Продолжительность : 49 м. 42 с.
Вид битрейта : Постоянный
Битрейт : 384 Кбит/сек
Каналы : 6 каналов
Расположение каналов : Front: L C R, Side: L R, LFE
Частота : 48,0 КГц
Частота кадров : 31,250 кадров/сек (1536 spf)
Битовая глубина : 16 бит
Метод сжатия : С потерями
Размер потока : 137 Мбайт (6%)
Заголовок : MVO LostFilm @DD5.1 AC3, 384 Kbps, 48.0 KHz, 6 ch
Язык : Russian
Default : Нет
Forced : Нет

Аудио #3
Идентификатор : 7
Формат : AC-3
Формат/Информация : Audio Coding 3
Расширение режима : CM (complete main)
Параметр Endianness формата : Big
Идентификатор кодека : A_AC3
Продолжительность : 49 м. 42 с.
Вид битрейта : Постоянный
Битрейт : 384 Кбит/сек
Каналы : 6 каналов
Расположение каналов : Front: L C R, Side: L R, LFE
Частота : 48,0 КГц
Частота кадров : 31,250 кадров/сек (1536 spf)
Битовая глубина : 16 бит
Метод сжатия : С потерями
Размер потока : 137 Мбайт (6%)
Заголовок : MVO Jaskier @DD5.1 AC3, 384 Kbps, 48.0 KHz, 6 ch
Язык : Russian
Default : Нет
Forced : Нет

Аудио #4
Идентификатор : 8
Формат : AC-3
Формат/Информация : Audio Coding 3
Расширение режима : CM (complete main)
Параметр Endianness формата : Big
Идентификатор кодека : A_AC3
Продолжительность : 48 м. 49 с.
Вид битрейта : Постоянный
Битрейт : 384 Кбит/сек
Каналы : 6 каналов
Расположение каналов : Front: L C R, Side: L R, LFE
Частота : 48,0 КГц
Частота кадров : 31,250 кадров/сек (1536 spf)
Битовая глубина : 16 бит
Метод сжатия : С потерями
Размер потока : 134 Мбайт (6%)
Заголовок : MVO NewStudio @DD5.1 AC3, 384 Kbps, 48.0 KHz, 6 ch
Язык : Russian
Default : Нет
Forced : Нет

Аудио #5
Идентификатор : 9
Формат : AC-3
Формат/Информация : Audio Coding 3
Расширение режима : CM (complete main)
Параметр Endianness формата : Big
Идентификатор кодека : A_AC3
Продолжительность : 48 м. 49 с.
Вид битрейта : Постоянный
Битрейт : 640 Кбит/сек
Каналы : 6 каналов
Расположение каналов : Front: L C R, Side: L R, LFE
Частота : 48,0 КГц
Частота кадров : 31,250 кадров/сек (1536 spf)
Битовая глубина : 16 бит
Метод сжатия : С потерями
Размер потока : 224 Мбайт (10%)
Заголовок : Original@DD5.1 AC3 ,640 Kbps, 48.0 KHz, 6 ch
Язык : English
Default : Нет
Forced : Нет

Текст #1
Идентификатор : 2
Формат : UTF-8
Идентификатор кодека : S_TEXT/UTF8
Идентификатор кодека/Информация : UTF-8 Plain Text
Продолжительность : 36 м. 34 с.
Битрейт : 7 бит/сек
Count of elements : 42
Размер потока : 2,01 Кбайт (0%)
Заголовок : Rus Forced
Язык : Russian
Default : Да
Forced : Да

Текст #2
Идентификатор : 3
Формат : UTF-8
Идентификатор кодека : S_TEXT/UTF8
Идентификатор кодека/Информация : UTF-8 Plain Text
Продолжительность : 45 м. 45 с.
Битрейт : 150 бит/сек
Count of elements : 739
Размер потока : 50,3 Кбайт (0%)
Заголовок : Rus
Язык : Russian
Default : Нет
Forced : Нет

Текст #3
Идентификатор : 4
Формат : UTF-8
Идентификатор кодека : S_TEXT/UTF8
Идентификатор кодека/Информация : UTF-8 Plain Text
Продолжительность : 47 м. 29 с.
Битрейт : 91 бит/сек
Count of elements : 814
Размер потока : 31,7 Кбайт (0%)
Заголовок : Original
Язык : English
Default : Нет
Forced : Нет

Меню
00:00:00.000 : en:Глава 01 / en:Глава 01 / en:Глава 01 / en:Глава 01 / en:Глава 01 / en:Глава 01 / en:Глава 01 / en:Глава 01 / en:Глава 01










1. Открыть торрент
2. Снять галки с тех файлов торрента, которые мы не хотим закачивать. Оставляем только на нужных нам файлах (файле).
3. Нажать О.К.

В клиенте utorrent

Инструкция

1) Открыть торрент


2) Снять галки с тех файлов торрента, которые мы не хотим закачивать:

* либо вручную, снимая с каждого файла галку( скрин №1)
* либо, нажав кнопку "Снять метки (Select None)", сняв сразу со всех файлов(скрин №2)
№1

№2

Оставляем только на нужных нам файлах (файле).

3)Нажать О.К








Внимание!!! 02.02. 2017. РАЗДАЧА ОБНОВЛЕНА. ФИНАЛ СЕЗОНА. СЕЗОН ПОЛНОСТЬЮ. ОБНОВИТЕ ТОРЕНТ ФАЙЛ.ПРИЯТНОГО ПРОСМОТРА .


Внимание!!! 10.02. 2017. ПЕРЕ РАЗДАЧА В 7-8 СЕРИЮ ДОБАВЛЕНА ЗВУКОВАЯ ДОРОЖКА ОТ LostFilm . СЕЗОН ПОЛНОСТЬЮ. ОБНОВИТЕ ТОРЕНТ ФАЙЛ.ПРИЯТНОГО ПРОСМОТРА .




Релиз от: Nikolai.Baranov & PIRATIYA







_________________

Легко быть оптимистом, когда судьба не валит с ног тяжелыми ударами, а лишь иногда легонько шлепает по заднице.



реклама партнёра


Вернуться к началу
 Профиль Отправить личное сообщение  
 
   Похожие торренты   Автор   Торрент   Размер 
В этой теме нет новых непрочитанных сообщений. Лемони Сникет: 33 несчастья / A Series of Unfortunate Events (Сезон 1, Серия 1-8 из 8) ( Дэниэл Хэндлер, Эмили Фокс) [2017 , Драма, приключения, семейный,WEB-DLRip 1080p] [ AlexFilm , LostFilm , Jaskier , NewStudio , English] + [Subs Rus,EN

Враг Нароода

0 | 0

34.09 ГБ

В этой теме нет новых непрочитанных сообщений. Лемони Сникет: 33 несчастья (1 сезон: 1-8 серии из 8) / A Series of Unfortunate Events [2017, Драма, приключения, семейный] WEBRip [Jaskier]

Dracon

96 | 147

5.13 ГБ

В этой теме нет новых непрочитанных сообщений. Лемони Сникет: 33 несчастья / A Series of Unfortunate Events [01x01-04 из 08] (Драма, приключения, комедия, 2017) WEBRip | LostFilm

marya111

32 | 25

3.19 ГБ

В этой теме нет новых непрочитанных сообщений. Табу / Taboo (Сезон 1, Серия 1-8 из 8) (Андерс Энгстрем, Кристоффер Нюхольм ) [2017 , Драма, приключения , HDTVRip 720p] [ AlexFilm , LostFilm , Jaskier , English] + [Subs Rus , Ukr ,ENG]

Враг Нароода

0 | 0

15.76 ГБ

В этой теме нет новых непрочитанных сообщений. Табу / Taboo (Сезон 1, Серия 1-8 из 8) (Андерс Энгстрем, Кристоффер Нюхольм ) [2017 , Драма, приключения , HDTVRip 1080p] [ AlexFilm , LostFilm , Jaskier , English] + [Subs Rus , Ukr ,ENG]

Враг Нароода

0 | 0

34.34 ГБ

В этой теме нет новых непрочитанных сообщений. Изумрудный город / Emerald City (Сезон 1, Серия 1-10 из 10) (Тарсем Сингх) [2017 , Фэнтези, WEB-DLRip 1080p] [SDI-Media , LostFilm , NewStudio ,AlexFilm , English] + [Subs Rus,ENG]

Враг Нароода

0 | 0

21.96 ГБ

В этой теме нет новых непрочитанных сообщений. Проповедник / Preacher [2017] (Сезон 2, Серия 1-13 из 13) (Сет Роген) [Фэнтези, драма,, приключения , экранизация , WEB-DLRip] [720p] [DD5.1] [MVO] [LostFilm,AlexFilm,Jaskier,NewStudiо,OMSKBIRD,HamsterStudio,BaibaKo,Kubik V Kube, Eng + Subs

Враг Нароода

0 | 0

25.81 ГБ


Начать новую тему Ответить на тему  [ 1 сообщение ] 




Для Мосгорсуда, Роскомнадзора и рекламодателей:: mosgorsud-torrent[собачка]yandex.ru
cron