Торрент файл
скачать торрент магнет ссылка Добавлен: 21 янв 2017, 22:24
Размер: 3.57 ГБ
Сидеров: 479
Личеров: 77
Статус: (salma3)
Автор

СообщениеДобавлено: 21 янв 2017, 22:24 

Не в сети
Супермодератор
Аватара пользователя
Дата регистрации:
15 фев 2012, 16:44
Возраст: 28
Спасибо: 6659 / 2146
Сообщения: 46020
Формат: WEB-DL 720p, MKV, H.264, AC3
Режиссер: Наталья Хлопецкая
Жанр: мелодрама
Продолжительность: 4 ~ 00:44:00
Год выпуска: 2016

В ролях: Александр Яцко, Евгения Дмитриева, Дмитрий Чеботарев, Вера Строкова, Александр Назаров (II), Евгения Розанова, Сергей Кизас, Иван Прилль, Мила Макарова, Сергей Губанов, Тамара Спиричева, Владимир Демидов

Описание: Владелец крупной британской корпорации Георгий Фаворский едет в Москву, чтобы сделать предложение бывшей возлюбленной, с которой расстался много лет назад. Дело не из простых, ведь гордая Ангелина Забелина не желает видеть бросившего её когда-то жениха, поэтому мистер Фаворский призывает на помощь молодого менеджера Алекса, отъявленного Дон Жуана и непревзойдённого мастера пикапа. Если тот поможет боссу завладеть сердцем неприступной возлюбленной, он сделает Алекса своим преемником. Парень не сомневается в успехе, однако дело оказывается не таким простым, как он представлял. "Старая бестия" умна и на редкость строптива, к тому же дело осложняется появлением воинственно настроенной дочери Забелиной, Алёны...




Видео: 1280х720 (16:9), 25 fps, AVC MPEG-4 (x264), High@L4, ~ 2504 kbps avg, 0.109 bit/pixel
Аудио: 48 kHz, AC3, 2/0 (L,R) ch, ~192 kbps
Общее
Уникальный идентификатор : 179636368563021917103870973055690971064 (0x8724B4C50B39E9C6B2C084A462C197B8)
Полное имя : C:\Невеста из Москвы.2016.720p.\01.mkv
Формат : Matroska
Версия формата : Version 2
Размер файла : 902 Мбайт
Продолжительность : 45 м. 51 с.
Общий поток : 2751 Кбит/сек
Дата кодирования : UTC 2017-01-20 07:04:49
Программа кодирования : mkvmerge v6.1.0 ('Old Devil') built on Mar 4 2013 09:10:42
Библиотека кодирования : libebml v1.3.0 + libmatroska v1.4.0

Видео
Идентификатор : 1
Формат : AVC
Формат/Информация : Advanced Video Codec
Профиль формата : High@L4
Параметр CABAC формата : Да
Параметр ReFrames формата : 4 кадра
Идентификатор кодека : V_MPEG4/ISO/AVC
Продолжительность : 45 м. 51 с.
Битрейт : 2504 Кбит/сек
Ширина : 1280 пикселей
Высота : 720 пикселей
Соотношение сторон : 16:9
Режим частоты кадров : Постоянный
Частота кадров : 25,000 кадров/сек
Цветовое пространство : YUV
Субдискретизация насыщенности : 4:2:0
Битовая глубина : 8 бит
Тип развёртки : Прогрессивная
Бит/(Пиксели*Кадры) : 0.109
Размер потока : 821 Мбайт (91%)
Язык : English
Default : Да
Forced : Нет

Аудио
Идентификатор : 2
Формат : AC-3
Формат/Информация : Audio Coding 3
Расширение режима : CM (complete main)
Параметр Endianness формата : Big
Идентификатор кодека : A_AC3
Продолжительность : 45 м. 51 с.
Вид битрейта : Постоянный
Битрейт : 192 Кбит/сек
Каналы : 2 канала
Расположение каналов : Front: L R
Частота : 48,0 КГц
Частота кадров : 31,250 кадров/сек (1536 spf)
Битовая глубина : 16 бит
Метод сжатия : С потерями
Размер потока : 63,0 Мбайт (7%)
Default : Да
Forced : Нет




_________________
Проголосуй за трекер Открытый торрент трекер - RUS-MEDIA.ORG

Проголосуй Открытый торрент трекер - RUS-MEDIA.ORG



реклама партнёра


Вернуться к началу
 Профиль Отправить личное сообщение  
 
   Похожие торренты   Автор   Торрент   Размер 
В этой теме нет новых непрочитанных сообщений. Золотая невеста (Роман Барабаш) [2014, Мелодрама, HDTVRip 720p]

Nickolas3435

1964 | 147

2.43 ГБ

В этой теме нет новых непрочитанных сообщений. Три дороги (1-4 серии из 4) [мелодрама, 2016] WEB-DL 720p

salma3

541 | 341

3.77 ГБ

В этой теме нет новых непрочитанных сообщений. Прости (1-4 серии из 4) [мелодрама, 2016] HDTVRip 720p

salma3

122 | 26

5.25 ГБ

В этой теме нет новых непрочитанных сообщений. Любовь говорит (1-4 серии из 4) [мелодрама, 2016] WEB-DL 720p

salma3

125 | 20

3.41 ГБ

В этой теме нет новых непрочитанных сообщений. Второй брак (1-4 серии из 4) [мелодрама, 2016] WEB-DL 720p

salma3

470 | 128

3.45 ГБ

В этой теме нет новых непрочитанных сообщений. Из Сибири с любовью (1-4 серии из 4) [мелодрама, 2016] WEB-DL 720p

salma3

457 | 102

3.39 ГБ

В этой теме нет новых непрочитанных сообщений. Деревенский роман [1-16 серии из 16] [Мелодрама, 2016] HDTVRip 720p

Dracon

45 | 26

25.14 ГБ


Начать новую тему Ответить на тему  [ 1 сообщение ] 




Для Мосгорсуда, Роскомнадзора и рекламодателей:: mosgorsud-torrent[собачка]yandex.ru