Торрент файл
скачать торрент магнет ссылка Добавлен: 14 янв 2017, 22:27
Размер: 1.26 ГБ
Сидеров: 676
Личеров: 62
Статус: (salma3)
Автор

СообщениеДобавлено: 14 янв 2017, 22:27 

Не в сети
Супермодератор
Аватара пользователя
Дата регистрации:
15 фев 2012, 16:44
Возраст: 30
Спасибо: 8135 / 2148
Сообщения: 95000
Формат: DVB, MPEG-TS, H.264, AC3
Субтитры: отсутствуют
Режиссер: Александр Карпиловский
Жанр: приключения, семейный
Продолжительность: 01:36:40
Год выпуска: 2015

В ролях: Семён Трескунов, Егор Клинаев, Анфиса Вистингаузен, Василий Мищенко, Марианна Шульц, Тимофей Трибунцев, Екатерина Кузнецова, Сергей Баталов, Михаил Занадворов, Илья Ермолов, Софико Квирквелия

Описание: Прошло два года. Наши герои выросли. Димка, Мишка и Лена едут в пионерский лагерь на море. Вместе с ними любимая собака Савва. В лагере их ждут необыкновенные приключения, сокровища, дуэли, пещеры и многое другое. И, конечно, первая любовь с настоящими шекспировскими страстями.



Видео: 720x576@1046x576 (16:9), 25 fps, H.264 High@L3 ~1382 kbps avg, 0.133 bit/pixel
Аудио: 48 kHz, AC3 Dolby Digital, 2/0 (L,R) ch, ~384 kbps avg

Формат : MPEG-TS
Размер файла : 1,26 Гбайт
Продолжительность : 1 ч. 36 м.
Режим общего битрейта : Переменный
Общий поток : 1862 Кбит/сек

Видео
Идентификатор : 219 (0xDB)
Идентификатор меню : 73 (0x49)
Формат : AVC
Формат/Информация : Advanced Video Codec
Профиль формата : High@L3
Параметр CABAC формата : Да
Параметр ReFrames формата : 4 кадра
Идентификатор кодека : 27
Продолжительность : 1 ч. 36 м.
Битрейт : 1382 Кбит/сек
Ширина : 720 пикселей
Высота : 576 пикселей
Соотношение сторон : 16:9
Частота кадров : 25,000 кадров/сек
Стандарт вещания : PAL
Цветовое пространство : YUV
Субдискретизация насыщенности : 4:2:0
Битовая глубина : 8 бит
Тип развёртки : Чересстрочная
Порядок развёртки : Верхнее поле первое
Бит/(Пиксели*Кадры) : 0.133
Размер потока : 955 Мбайт (74%)
Цветовой диапазон : Limited
Основные цвета : BT.601 PAL
Характеристики трансфера : BT.470 System B, BT.470 System G
Коэффициенты матрицы : BT.601

Аудио
Идентификатор : 319 (0x13F)
Идентификатор меню : 73 (0x49)
Формат : AC-3
Формат/Информация : Audio Coding 3
Расширение режима : CM (complete main)
Параметр Endianness формата : Big
Идентификатор кодека : 6
Продолжительность : 1 ч. 36 м.
Вид битрейта : Постоянный
Битрейт : 384 Кбит/сек
Каналы : 2 канала
Расположение каналов : Front: L R
Частота : 48,0 КГц
Метод сжатия : С потерями
Размер потока : 266 Мбайт (21%)
Язык : Russian



_________________
Проголосуй за трекер Открытый торрент трекер - RUS-MEDIA.ORG

Проголосуй Открытый торрент трекер - RUS-MEDIA.ORG


Скачать книги и аудио книги через торрент


Вернуться к началу
 Профиль Отправить личное сообщение  
 
   Похожие торренты   Автор   Торрент   Размер 
В этой теме нет новых непрочитанных сообщений. Частное пионерское 2 [детский, приключения, семейный, 2015] WEB-DLRip

salma3

308 | 71

1.46 ГБ

В этой теме нет новых непрочитанных сообщений. Частное пионерское 2 (2015) WEB-DLRip от New-Team

marya111

150 | 15

1.09 ГБ

В этой теме нет новых непрочитанных сообщений. Частное пионерское 2 (2015) HDRip от Scarabey | iTunes

marya111

203 | 15

1.45 ГБ

В этой теме нет новых непрочитанных сообщений. Частное пионерское 2 (2015) WEB-DLRip от New-Team

marya111

140 | 21

745.84 МБ

В этой теме нет новых непрочитанных сообщений. Частное пионерское 2 (2015) WEB-DLRip-AVC от New-Team

marya111

57 | 1

1.45 ГБ

В этой теме нет новых непрочитанных сообщений. Частное пионерское 2 (2015) WEB-DLRip 720p от New-Team

marya111

446 | 23

2.17 ГБ

В этой теме нет новых непрочитанных сообщений. Частное пионерское (2013) HDTVRip от Scarabey

marya111

122 | 10

1.45 ГБ


Начать новую тему Ответить на тему  [ 1 сообщение ] 




Для Мосгорсуда, Роскомнадзора и рекламодателей:: mosgorsud-torrent[собачка]yandex.ru
cron