Торрент файл
скачать торрент магнет ссылка Добавлен: 10 янв 2017, 17:17
Размер: 1.51 ГБ
Сидеров: 378
Личеров: 14
Автор

СообщениеДобавлено: 10 янв 2017, 17:17 

Не в сети
Дата регистрации:
28 сен 2016, 18:10
Спасибо: 209 / 0
Сообщения: 1999
Информация о фильме

Название: Шерлок
Оригинальное название: Sherlock
Год выхода: 2017
Жанр: Детектив, триллер
Режиссер: Ник Харран, Бенжамин Карон, Рэйчел Талалэй
В ролях: Бенедикт Камбербэтч, Мартин Фриман, Уна Стаббс, Лу Брили, Руперт Грэйвз, Джонатан Арис, Аманда Эббингтон, Наташа О’Кифф

О фильме: Скотленд-Ярд занят расследованием загадочного дела, а вот Шерлока больше интересует одна, казалось бы, незначительная деталь: зачем кто-то планомерно уничтожает изображения бывшего премьер-министра Маргарет Тэтчер? Холмс пытается выяснить, чьих рук это дело - сумасшедшего, оказавшегося на свободе, или хладнокровного преступника. Есть еще одна головоломка для "мастера дедукции", разгадку которой стоит искать в прошлом Мэри Ватсон...

Файл

Качество: HDTVRip (AVC)
Видео: MPEG-4 AVC, 2064 Кбит/с, 1024x576, 25 кадр/с
Аудио: AC3, 2 ch, 384 Кбит/с
Размер: 1.51 ГБ
Продолжительность: 1 x 01:28:23
Перевод: Дублированный

Озвучивание - Дублированное (Первый канал)

Серия 1. Шесть Тэтчер


x264 [info]: frame I:1200 Avg QP:12.09 size: 70307
x264 [info]: frame P:35062 Avg QP:15.05 size: 22604
x264 [info]: frame B:96320 Avg QP:17.18 size: 5100
x264 [info]: consecutive B-frames: 3.5% 4.6% 6.9% 57.6% 12.1% 12.8% 1.7% 0.5% 0.1% 0.1% 0.1%
x264 [info]: mb I I16..4: 18.4% 31.2% 50.4%
x264 [info]: mb P I16..4: 5.6% 13.0% 11.3% P16..4: 30.4% 23.8% 8.9% 1.2% 0.1% skip: 5.6%
x264 [info]: mb B I16..4: 1.4% 2.1% 0.9% B16..8: 22.6% 14.3% 2.7% direct: 4.8% skip:51.2% L0:40.1% L1:45.6% BI:14.3%
x264 [info]: 8x8 transform intra:43.9% inter:38.2%
x264 [info]: direct mvs spatial:98.5% temporal:1.5%
x264 [info]: coded y,uvDC,uvAC intra: 66.9% 78.0% 56.4% inter: 15.9% 19.4% 9.7%
x264 [info]: i16 v,h,dc,p: 32% 18% 24% 27%
x264 [info]: i8 v,h,dc,ddl,ddr,vr,hd,vl,hu: 24% 19% 23% 4% 5% 6% 6% 6% 6%
x264 [info]: i4 v,h,dc,ddl,ddr,vr,hd,vl,hu: 32% 16% 31% 3% 4% 4% 3% 3% 3%
x264 [info]: i8c dc,h,v,p: 37% 27% 21% 15%
x264 [info]: Weighted P-Frames: Y:4.5% UV:2.7%
x264 [info]: ref P L0: 53.2% 7.3% 16.9% 5.8% 5.0% 3.5% 3.2% 1.7% 1.7% 1.6% 0.2% 0.0%
x264 [info]: ref B L0: 83.0% 8.6% 3.1% 1.7% 1.1% 1.0% 0.8% 0.4% 0.2%
x264 [info]: ref B L1: 96.3% 3.7%
x264 [info]: kb/s:2063.83


Общее
Уникальный идентификатор : 253400905455828548289123918889378095764 (0xBEA33D3A965C1C70BFC8BC54A0BBA294)
Полное имя : D:ЗагрузкиSherlock.S04Sherlok.Holms.6.Tetcher.2017.x264.HDTVRip.(AVC).OlLanDGroup.mkv
Формат : Matroska
Версия формата : Version 2
Размер файла : 1,51 Гбайт
Продолжительность : 1 ч. 28 м.
Общий поток : 2450 Кбит/сек
Название фильма : Шерлок: Шесть Тэтчер.2017.Rip by: ollan
Дата кодирования : UTC 2017-01-02 14:04:43
Программа кодирования : mkvmerge v5.6.0 ('Kenya Kane') built on May 27 2012 16:44:04
Библиотека кодирования : libebml v1.2.3 + libmatroska v1.3.0
Attachements : Cover - Sherlock.S04.png

Видео
Идентификатор : 1
Формат : AVC
Формат/Информация : Advanced Video Codec
Профиль формата : High@L4.1
Параметр CABAC формата : Да
Параметр ReFrames формата : 10 кадров
Идентификатор кодека : V_MPEG4/ISO/AVC
Продолжительность : 1 ч. 28 м.
Битрейт : 2064 Кбит/сек
Ширина : 1024 пикселя
Высота : 576 пикселей
Соотношение сторон : 16:9
Режим частоты кадров : Постоянный
Частота кадров : 25,000 кадров/сек
Цветовое пространство : YUV
Субдискретизация насыщенности : 4:2:0
Битовая глубина : 8 бит
Тип развёртки : Прогрессивная
Бит/(Пиксели*Кадры) : 0.140
Размер потока : 1,25 Гбайт (82%)
Библиотека кодирования : x264 core 146 r2538 121396c
Настройки программы : cabac=1 / ref=10 / deblock=1:-3:-3 / analyse=0x3:0x133 / me=umh / subme=11 / psy=1 / psy_rd=0.00:0.05 / mixed_ref=1 / me_range=48 / chroma_me=1 / trellis=2 / 8x8dct=1 / cqm=0 / deadzone=21,11 / fast_pskip=0 / chroma_qp_offset=-1 / threads=12 / lookahead_threads=3 / sliced_threads=0 / nr=0 / decimate=0 / interlaced=0 / bluray_compat=0 / constrained_intra=0 / bframes=10 / b_pyramid=2 / b_adapt=2 / b_bias=0 / direct=3 / weightb=1 / open_gop=0 / weightp=2 / keyint=250 / keyint_min=25 / scenecut=40 / intra_refresh=0 / rc_lookahead=40 / rc=2pass / mbtree=0 / bitrate=2064 / ratetol=1.0 / qcomp=0.60 / qpmin=0 / qpmax=69 / qpstep=4 / cplxblur=20.0 / qblur=0.5 / vbv_maxrate=50000 / vbv_bufsize=62500 / nal_hrd=none / filler=0 / ip_ratio=1.40 / pb_ratio=1.30 / aq=1:1.00
Язык : English
Default : Да
Forced : Нет

Аудио
Идентификатор : 2
Формат : AC-3
Формат/Информация : Audio Coding 3
Расширение режима : CM (complete main)
Параметр Endianness формата : Big
Идентификатор кодека : A_AC3
Продолжительность : 1 ч. 28 м.
Вид битрейта : Постоянный
Битрейт : 384 Кбит/сек
Каналы : 6 каналов
Расположение каналов : Front: L C R, Side: L R, LFE
Частота : 48,0 КГц
Частота кадров : 31,250 кадров/сек (1536 spf)
Метод сжатия : С потерями
Размер потока : 243 Мбайт (16%)
Заголовок : Дублированный (Первый канал)
Язык : Russian
Default : Да
Forced : Нет











реклама партнёра


Вернуться к началу
 Профиль Отправить личное сообщение  
 
   Похожие торренты   Автор   Торрент   Размер 
В этой теме нет новых непрочитанных сообщений. Шерлок / Sherlock [04x01-02 из 03] (Детектив, триллер, 2017) HDTVRip-AVC | Первый канал

marya111

0 | 0

3 ГБ

В этой теме нет новых непрочитанных сообщений. Шерлок / Sherlock [04x01-02 из 03] (триллер, драма, криминал, детектив, 2017) HDTVRip 1080p от qqss44 | Первый канал | Локализованная версия

marya111

411 | 731

10.37 ГБ

В этой теме нет новых непрочитанных сообщений. Шерлок / Sherlock [04x01 из 03] (триллер, драма, криминал, детектив, 2017) HDTVRip 1080p от qqss44 | Первый канал | Локализованная версия

marya111

1662 | 223

5.18 ГБ

В этой теме нет новых непрочитанных сообщений. Шерлок / Sherlock [04x00-03 из 03] [триллер, драма, криминал, детектив, 2017] HDTVRip [Первый канал]

Dracon

421 | 354

5.44 ГБ

В этой теме нет новых непрочитанных сообщений. Шерлок / Sherlock [S01-04] [Триллер, драма, криминал, детекти, 2010-2017] BDRip, WEB-DLRip, Dub [Первый канал]

salma3

299 | 481

19.12 ГБ

В этой теме нет новых непрочитанных сообщений. Шерлок: Безобразная невеста / Sherlock: The Abominable Bride (Дуглас МакКиннон) [триллер, драма, криминал, детектив, 2015] WEBRip, Dub+Sub [Первый канал]

Dracon

2912 | 38

1.1 ГБ

В этой теме нет новых непрочитанных сообщений. Шерлок: Безобразная невеста / Sherlock: The Abominable Bride (Дуглас МакКиннон) [триллер, драма, криминал, детектив, 2015] WEBRip 1080p, Dub+Sub [Первый канал]

Dracon

8420 | 147

3.48 ГБ


Начать новую тему Ответить на тему  [ 1 сообщение ] 




Для Мосгорсуда, Роскомнадзора и рекламодателей:: mosgorsud-torrent[собачка]yandex.ru