Торрент файл
скачать торрент магнет ссылка Добавлен: 04 янв 2017, 15:04
Размер: 5.18 ГБ
Сидеров: 1662
Личеров: 223
Автор

СообщениеДобавлено: 04 янв 2017, 15:04 

Не в сети
Дата регистрации:
28 сен 2016, 18:10
Спасибо: 211 / 0
Сообщения: 1999
Информация о фильме
Название: Шерлок
Оригинальное название: Sherlock
Год выхода: 2017
Жанр: триллер, драма, криминал, детектив
Режиссер: Дуглас МакКиннон
В ролях: Бенедикт Камбербэтч, Мартин Фриман, Уна Стаббс, Лу Брили, Руперт Грэйвз, Джонатан Арис, Аманда Эббингтон, Наташа О’Кифф

О фильме:
События разворачиваются в наши дни. Он прошел Афганистан, остался инвалидом. По возвращении в родные края встречается с загадочным, но своеобразным гениальным человеком. Тот в поиске соседа по квартире. Лондон, 2010 год. Происходят необъяснимые убийства. Скотланд-Ярд без понятия, за что хвататься. Существует лишь один человек, который в силах разрешить проблемы и найти ответы на сложные вопросы.

Страна: Великобритания
Продолжительность: ~ 01:30:00
Перевод: Профессиональный (дублированый) - Первый канал



Файл
Качество: HDTVRip 1080p
Формат: MKV
Видео: 1920x1080 (16:9), X264, ~8000 kbps
Аудио Rus: AC3, 2 ch, ~384.00 kbps avg


Общее
Уникальный идентификатор : 203961378677215149589855234850078334308 (0x9971885D03D2DD6A88CB51D391A81D64)
Формат : Matroska
Версия формата : Version 2
Размер файла : 5,18 Гбайт
Продолжительность : 1 ч. 28 м.
Общий поток : 8383 Кбит/сек
Дата кодирования : UTC 2017-01-03 10:33:06
Программа кодирования : mkvmerge v7.9.0 ('Birds') 64bit
Библиотека кодирования : libebml v1.3.1 + libmatroska v1.4.2

Видео
Идентификатор : 1
Формат : AVC
Формат/Информация : Advanced Video Codec
Профиль формата : High@L4.1
Параметр CABAC формата : Да
Параметр ReFrames формата : 4 кадра
Идентификатор кодека : V_MPEG4/ISO/AVC
Продолжительность : 1 ч. 28 м.
Битрейт : 8000 Кбит/сек
Ширина : 1920 пикселей
Высота : 1080 пикселей
Соотношение сторон : 16:9
Режим частоты кадров : Постоянный
Частота кадров : 25,000 кадров/сек
Цветовое пространство : YUV
Субдискретизация насыщенности : 4:2:0
Битовая глубина : 8 бит
Тип развёртки : Прогрессивная
Бит/(Пиксели*Кадры) : 0.154
Размер потока : 4,94 Гбайт (95%)
Библиотека кодирования : x264 core 148 r2744kMod b97ae06
Настройки программы : cabac=1 / ref=4 / deblock=1:-3:-3 / analyse=0x3:0x133 / me=umh / subme=11 / psy=1 / fade_compensate=0.00 / psy_rd=1.00:0.00 / mixed_ref=1 / me_range=32 / chroma_me=1 / trellis=2 / 8x8dct=1 / cqm=0 / deadzone=21,11 / fast_pskip=0 / chroma_qp_offset=-2 / threads=12 / lookahead_threads=2 / sliced_threads=0 / nr=0 / decimate=0 / interlaced=0 / bluray_compat=0 / constrained_intra=0 / bframes=7 / b_pyramid=2 / b_adapt=2 / b_bias=0 / direct=3 / weightb=1 / open_gop=0 / weightp=2 / keyint=240 / keyint_min=24 / scenecut=40 / intra_refresh=0 / rc=2pass / mbtree=0 / bitrate=8000 / ratetol=1.0 / qcomp=0.60 / qpmin=0 / qpmax=69 / qpstep=4 / cplxblur=20.0 / qblur=0.5 / ip_ratio=1.40 / pb_ratio=1.30 / aq=3:0.80
Язык : English
Default : Да
Forced : Нет

Аудио
Идентификатор : 2
Формат : AC-3
Формат/Информация : Audio Coding 3
Расширение режима : CM (complete main)
Параметр Endianness формата : Big
Идентификатор кодека : A_AC3
Продолжительность : 1 ч. 28 м.
Вид битрейта : Постоянный
Битрейт : 384 Кбит/сек
Каналы : 2 канала
Расположение каналов : Front: L R
Частота : 48,0 КГц
Частота кадров : 31,250 кадров/сек (1536 spf)
Метод сжатия : С потерями
Размер потока : 243 Мбайт (5%)
Язык : Russian
Default : Да
Forced : Нет





реклама партнёра


Вернуться к началу
 Профиль Отправить личное сообщение  
 
   Похожие торренты   Автор   Торрент   Размер 
В этой теме нет новых непрочитанных сообщений. Шерлок / Sherlock [04x01-02 из 03] (триллер, драма, криминал, детектив, 2017) HDTVRip 1080p от qqss44 | Первый канал | Локализованная версия

marya111

411 | 731

10.37 ГБ

В этой теме нет новых непрочитанных сообщений. Шерлок / Sherlock [04x01-02 из 03] (Детектив, триллер, 2017) HDTVRip-AVC | Первый канал

marya111

0 | 0

3 ГБ

В этой теме нет новых непрочитанных сообщений. Шерлок / Sherlock [04x01 из 03] (Детектив, триллер, 2017) HDTVRip-AVC от OlLanDGroup | Локализованный видеоряд | Первый канал

marya111

378 | 14

1.51 ГБ

В этой теме нет новых непрочитанных сообщений. Шерлок / Sherlock [04x00-03 из 03] [триллер, драма, криминал, детектив, 2017] HDTVRip [Первый канал]

Dracon

421 | 354

5.44 ГБ

В этой теме нет новых непрочитанных сообщений. Шерлок: Безобразная невеста / Sherlock: The Abominable Bride (Дуглас МакКиннон) [триллер, драма, криминал, детектив, 2015] WEBRip 1080p, Dub+Sub [Первый канал]

Dracon

8420 | 147

3.48 ГБ

В этой теме нет новых непрочитанных сообщений. Шерлок : Безобразная невеста / Sherlock: The Abominable Bride (Дуглас МакКиннон) [триллер, драма, криминал, детектив, 2015] HDTV 1080p, Dub+Sub [Первый канал]

Dracon

2654 | 43

5.22 ГБ

В этой теме нет новых непрочитанных сообщений. Шерлок / Sherlock [S01-04] [Триллер, драма, криминал, детекти, 2010-2017] BDRip, WEB-DLRip, Dub [Первый канал]

salma3

307 | 481

19.12 ГБ


Начать новую тему Ответить на тему  [ 1 сообщение ] 




Для Мосгорсуда, Роскомнадзора и рекламодателей:: mosgorsud-torrent[собачка]yandex.ru