Торрент файл
скачать торрент магнет ссылка Добавлен: 02 янв 2017, 12:01
Размер: 1.45 ГБ
Сидеров: 262
Личеров: 100
Статус: (salma3)
Автор

СообщениеДобавлено: 02 янв 2017, 12:01 

Не в сети
Супермодератор
Аватара пользователя
Дата регистрации:
15 фев 2012, 16:44
Возраст: 28
Спасибо: 7290 / 2147
Сообщения: 70618
Год выпуска: 2016
Жанр: Комедия, мелодрама
Режиссер: Дмитрий Петрунь

В ролях: Екатерина Климова, Иван Оганесян, Дмитрий Суржиков, Ада Роговцева, Владимир Горянский, Алина Гроссу, Денис Мартынов, Александр Пожарский, Карина Воедило

О фильме:
Сергей считает, что за 15 лет брака знает все о своей жене Ольге. Она хорошая хозяйка и мать, но с годами стала скучной, неинтересной, «прочитанной книгой». Сергей регистрируется на сайте знакомств и заводит виртуальный роман с незнакомкой по имени Эмма. Стремительные виртуальные отношения становятся реальными. Женщина умна и очень соблазнительна. Правда прячет лицо и предпочитает встречаться в темноте, но это еще больше распаляет Сергея. В отличие от опостылевшей однообразной Ольги, Эмма – загадочна и притягательна...

Страна: Украина
Студия: «Star Media»
Продолжительность: 4 x ~ 00:45:00
Перевод: Не требуется

Файл
Формат: avi
Качество: SATRip
Видео: XviD build 73, 624x352 (16:9), 25.000 fps, ~ 880 Kbps (~ 0.160 bit/pixel)
Звук: 48.0 kHz, MP3, 2/0 ch, 128 kbps
Язык: Русский
Субтитры: Украинские

General
Complete name : Ja.Ljublju.Svoego.Muzha.2016.XviD.SATRip.GeneralFilmJa.Ljublju.Svoego.Muzha.01.avi
Format : AVI
Format/Info : Audio Video Interleave
File size : 372 MiB
Duration : 50mn 53s
Overall bit rate : 1 022 Kbps
Writing application : VirtualDubMod 1.5.10.3 | http://www.virtualdub-fr.org || (build 2550/release)
Writing library : VirtualDubMod build 2550/release

Video
ID : 0
Format : MPEG-4 Visual
Format profile : Advanced Simple@L5
Format settings, BVOP : 1
Format settings, QPel : No
Format settings, GMC : No warppoints
Format settings, Matrix : Custom
Codec ID : XVID
Codec ID/Hint : XviD
Duration : 50mn 53s
Bit rate : 884 Kbps
Width : 624 pixels
Height : 352 pixels
Display aspect ratio : 16:9
Frame rate : 25.000 fps
Color space : YUV
Chroma subsampling : 4:2:0
Bit depth : 8 bits
Scan type : Progressive
Compression mode : Lossy
Bits/(Pixel*Frame) : 0.161
Stream size : 322 MiB (87%)
Writing library : XviD 73

Audio
ID : 1
Format : MPEG Audio
Format version : Version 1
Format profile : Layer 3
Codec ID : 55
Codec ID/Hint : MP3
Duration : 50mn 53s
Bit rate mode : Constant
Bit rate : 128 Kbps
Channel(s) : 2 channels
Sampling rate : 48.0 KHz
Compression mode : Lossy
Stream size : 46.6 MiB (13%)
Alignment : Aligned on interleaves
Interleave, duration : 40 ms (1.00 video frame)
Interleave, preload duratio : 504 ms
Writing library : LAME3.99r
Encoding settings : -m s -V 4 -q 0 -lowpass 17 -b 128


Релиз от:
Исходник:


_________________
Проголосуй за трекер Открытый торрент трекер - RUS-MEDIA.ORG

Проголосуй Открытый торрент трекер - RUS-MEDIA.ORG


Вернуться к началу
 Профиль Отправить личное сообщение  
 
   Похожие торренты   Автор   Торрент   Размер 
В этой теме нет новых непрочитанных сообщений. Я люблю своего мужа [01-04 из 04] [Комедия, мелодрама, 2016] SATRip-AVC

salma3

130 | 63

2.24 ГБ

В этой теме нет новых непрочитанных сообщений. Я люблю своего мужа [01-04 из 04] [Комедия, мелодрама, 2016] WEB-DLRip-AVC

salma3

130 | 51

2.54 ГБ

В этой теме нет новых непрочитанных сообщений. Я люблю своего мужа [01-04 из 04] [Комедия, мелодрама, 2016] WEB-DLRip

salma3

343 | 117

2.49 ГБ

В этой теме нет новых непрочитанных сообщений. Люблю своего любовника [2016 г., Amateur, All Sex, Oral, CamRip]

Dievas

2 | 0

117.89 МБ

В этой теме нет новых непрочитанных сообщений. Как вернуть мужа за 30 дней [01-02 из 02] [Комедия, мелодрама, 2017] WEB-DLRip

salma3

15 | 27

744.17 МБ

В этой теме нет новых непрочитанных сообщений. Чудеса своего рода / Some Kind of Wonderful [драма, мелодрама, комедия, 1987] WEB-DLRip, Avo

salma3

8 | 2

1.45 ГБ

В этой теме нет новых непрочитанных сообщений. Люблю тебя любую [01-02 из 02] [Мелодрама, 2017] SATRip-AVC

salma3

16 | 0

1.08 ГБ


Начать новую тему Ответить на тему  [ 1 сообщение ] 




Для Мосгорсуда, Роскомнадзора и рекламодателей:: mosgorsud-torrent[собачка]yandex.ru
cron