Торрент файл
скачать торрент магнет ссылка Добавлен: 26 дек 2016, 13:05
Размер: 10.29 ГБ
Сидеров: 61
Личеров: 21
Статус: (salma3)
Автор

СообщениеДобавлено: 26 дек 2016, 13:05 

Не в сети
Супермодератор
Аватара пользователя
Дата регистрации:
15 фев 2012, 16:44
Возраст: 27
Спасибо: 5955 / 2115
Сообщения: 28553
Год выпуска: 2016
Жанр: Мелодрама
Режиссер: Екатерина Двигубская

В ролях: Ксения Алфёрова, Мария Лисовая, Андрей Фролов (II), Виталий Кудрявцев, Екатерина Соломатина, Сергей Греков, Наталья Аринбасарова, Светлана Виноградова-Богатт

О фильме:
Анна (Ксения Алферова) и Михаил (Виталий Кудрявцев) – счастливые родители, их дочке Юле уже десять лет. Девочка родилась с пороком сердца и едва не умерла сразу после рождения. Родители окружили Юлю заботой, любовью и привыкли исполняли любые ее пожелания.После трагической гибели мужа Аня полностью посвящает себя дочери, работает сиделкой и даже не помышляет о личной жизни. Тем временем из капризного ребенка вырастает эгоистичная, бездушная и расчетливая особа, умело манипулирующая людьми (Мария Лисовая).Когда Аня встречает свою любовь – давнего друга муж Пашу (Андрей Фролов), взрослая дочь, привыкшая распоряжаться матерью, готова на все, чтобы не позволить ей стать счастливой.Есть ли пределы у материнской любви? И хватит ли Анне сил понять, что, отказываясь от собственного счастья, счастливым никого не сделать?



Страна: Россия
Студия: Кинокомпания «Русское»
Продолжительность: 2 x ~ 01:32:00
Перевод: Не требуется

Файл
Формат: avi
Качество: HDTV 1080i
Видео: MPEG-4 AVC, 1920x1080 (16:9), 25.000 fps, ~ 8000 Kbps (~ 0.153 bit/pixel)
Звук: 48.0 kHz, AC3, 2/0 ch, 192 kbps
Субтитры: нет
General
ID : 1 (0x1)
Complete name : Holodnoe.Serdce.2016.XviD.HDTV.1080.GeneralFilmHolodnoe.Serdce.01.ts
Format : MPEG-TS
File size : 5.37 GiB
Duration : 1h 29mn
Overall bit rate mode : Variable
Overall bit rate : 8 557 Kbps
Video
ID : 206 (0xCE)
Menu ID : 20106 (0x4E8A)
Format : AVC
Format/Info : Advanced Video Codec
Format profile : High@L4
Format settings, CABAC : Yes
Format settings, ReFrames : 4 frames
Format settings, GOP : M=4, N=28
Codec ID : 27
Duration : 1h 29mn
Bit rate : 7 940 Kbps
Width : 1 920 pixels
Height : 1 080 pixels
Display aspect ratio : 16:9
Frame rate : 25.000 fps
Color space : YUV
Chroma subsampling : 4:2:0
Bit depth : 8 bits
Scan type : Interlaced
Scan type, store method : Separated fields
Scan order : Top Field First
Bits/(Pixel*Frame) : 0.153
Stream size : 4.98 GiB (93%)
Color range : Limited
Color primaries : BT.709
Transfer characteristics : BT.709
Matrix coefficients : BT.709
Audio
ID : 306 (0x132)
Menu ID : 20106 (0x4E8A)
Format : MPEG Audio
Format version : Version 1
Format profile : Layer 2
Codec ID : 3
Duration : 1h 29mn
Bit rate mode : Constant
Bit rate : 192 Kbps
Channel(s) : 2 channels
Sampling rate : 48.0 KHz
Compression mode : Lossy
Delay relative to video : -120ms
Stream size : 123 MiB (2%)
Language : Russian


Релиз от:


_________________
Проголосуй за трекер Открытый торрент трекер - RUS-MEDIA.ORG




реклама партнёра


Вернуться к началу
 Профиль Отправить личное сообщение  
 
   Похожие торренты   Автор   Торрент   Размер 
В этой теме нет новых непрочитанных сообщений. Холодное сердце (1-2 серии из 2) [мелодрама, 2016] HDTVRip

salma3

1414 | 252

2.73 ГБ

В этой теме нет новых непрочитанных сообщений. Холодное сердце [01-02 из 02] (Мелодрама, 2016) HDTVRip от GeneralFilm

marya111

625 | 98

1.46 ГБ

В этой теме нет новых непрочитанных сообщений. Холодное сердце / Das kalte Herz [фэнтези, драма, 2016] BDRip 1080p, Avo

salma3

111 | 41

9.32 ГБ

В этой теме нет новых непрочитанных сообщений. Невезучая [Мелодрама, 2016] HDTV 1080i

salma3

240 | 67

3.7 ГБ

В этой теме нет новых непрочитанных сообщений. Сердце героя / 25 Hill aka Heart of a Hero [Драма, 2011] HDTV 1080i, Mvo

salma3

14 | 2

6.95 ГБ

В этой теме нет новых непрочитанных сообщений. Солнце в подарок [Серия 1-20 из 20] [Мелодрама, 2016] HDTV (1080i)

Dracon

35 | 23

54.27 ГБ

В этой теме нет новых непрочитанных сообщений. Средство от разлуки [Серия 1-2 из 2] [Мелодрама, 2016] HDTV 1080i

Dracon

1 | 1

10.96 ГБ


Начать новую тему Ответить на тему  [ 1 сообщение ] 




Для Мосгорсуда, Роскомнадзора и рекламодателей:: mosgorsud-torrent[собачка]yandex.ru