Торрент файл
скачать торрент магнет ссылка Добавлен: 25 дек 2016, 12:41
Размер: 45.81 ГБ
Сидеров: 13
Личеров: 33
Статус: (salma3)
Автор

СообщениеДобавлено: 25 дек 2016, 12:41 

Не в сети
Супермодератор
Аватара пользователя
Дата регистрации:
15 фев 2012, 16:44
Возраст: 28
Спасибо: 6914 / 2147
Сообщения: 52559
Год выхода: 2014
Страна: США
Студия: Your Face Goes Here Entertainment, Home Box Office (HBO)
Продолжительность: 10 x ~ 55:00
Жанр: фэнтези, триллер, драма, мелодрама, детектив
Режиссер: Майкл Леманн, Скотт Уинант, Даниэль Минахан, ...

В ролях: Анна Пакуин, Стивен Мойер, Сэм Траммелл, Райан Квантен, Рутина Уэсли, Александр Скарсгард, Кристофер Бауэр, Кристин Бауэр, Лоурен Боулз, Валентина Черви, Майкл МакМиллиан, Нелсан Эллис, Янина Гаванкар, Люси Гриффитс, Тодд Лоу, Джо Манганьелло, Кристофер Мелони, Дэнис О’Харе, Джим Пэррак, Кэрри Престон, Дебора Энн Уолл, ...

Перевод:
- Профессиональный (многоголосный, закадровый) NovaMedia по заказу Amedia
- Профессиональный (двуголосый, закадровый) Кубик в Кубе
- Субтитры

О фильме: События разворачиваются в небольшом городке в пригороде Нового Орлеана. С тех пор, как японцы изобрели синтетическую кровь «True Blood», у вампиров отпала необходимость убивать простых смертных. Два года назад вампиры покинули свои гробы и официально заявили о своих правах. Но как водится, не все люди оказались готовы к этому, и не все вампиры были рады отказаться от привычного лакомства. Сьюки Стэкхауз — обычная официантка из пригородного кафе, наделенная способностью читать мысли окружающих, знакомится с «хорошим» вампиром Биллом Комтоном. И сразу приобретает много врагов из «плохих парней»…



Кодек: x264
Качество: BDRip 720p
Видео: 1920x1080 , ~9500 kbps, 23,976 fps
Аудио #1: AC-3, 6 ch, 384 kbps (Rus) - NovaMedia
Аудио #2: AC-3, 6 ch, 384 kbps (Rus) - Кубик в Кубе
Аудио #3: DTS, 6 ch, 1509 kbps (Eng)
Субтитры: Русские, Английские
Общее
Уникальный идентификатор : 235122492946389352900999391287457440071 (0xB0E2F1E9F9E54611AA30B78D45156147)
Полное имя : True Blood E01 S07 2014 BDRip 1080p Amedia Кубик в Кубе.mkv
Формат : Matroska
Версия формата : Version 2
Размер файла : 4,24 Гбайт
Продолжительность : 50 м.
Общий поток : 12,0 Мбит/сек
Дата кодирования : UTC 2016-12-22 16:33:22
Программа кодирования : mkvmerge v4.0.0 ('The Stars were mine') сборка от Jun 6 2010 16:18:42
Библиотека кодирования : libebml v1.0.0 + libmatroska v1.0.0
Видео
Идентификатор : 1
Формат : AVC
Формат/Информация : Advanced Video Codec
Профиль формата : High@L4.1
Параметр CABAC формата : Да
Параметр ReFrames формата : 4 кадра
Идентификатор кодека : V_MPEG4/ISO/AVC
Продолжительность : 50 м.
Битрейт : 9690 Кбит/сек
Ширина : 1920 пикселей
Высота : 1080 пикселей
Соотношение сторон : 16:9
Режим частоты кадров : Постоянный
Частота кадров : 23,976 кадра/сек
Цветовое пространство : YUV
Субдискретизация насыщенности : 4:2:0
Битовая глубина : 8 бит
Тип развёртки : Прогрессивная
Бит/(Пиксели*Кадры) : 0.195
Размер потока : 3,35 Гбайт (79%)
Библиотека кодирования : x264 core 142 r2479 dd79a61
Настройки программы : cabac=1 / ref=4 / deblock=1:0:0 / analyse=0x3:0x133 / me=umh / subme=7 / psy=1 / psy_rd=1.00:0.00 / mixed_ref=1 / me_range=16 / chroma_me=1 / trellis=1 / 8x8dct=1 / cqm=0 / deadzone=21,11 / fast_pskip=0 / chroma_qp_offset=-2 / threads=18 / lookahead_threads=3 / sliced_threads=0 / nr=0 / decimate=1 / interlaced=0 / bluray_compat=0 / constrained_intra=0 / bframes=3 / b_pyramid=2 / b_adapt=1 / b_bias=0 / direct=1 / weightb=1 / open_gop=0 / weightp=2 / keyint=250 / keyint_min=23 / scenecut=40 / intra_refresh=0 / rc_lookahead=40 / rc=2pass / mbtree=1 / bitrate=9690 / ratetol=1.0 / qcomp=0.60 / qpmin=0 / qpmax=69 / qpstep=4 / cplxblur=20.0 / qblur=0.5 / ip_ratio=1.40 / aq=1:1.00
Язык : English
Default : Нет
Forced : Нет
Аудио #1
Идентификатор : 2
Формат : AC-3
Формат/Информация : Audio Coding 3
Расширение режима : CM (complete main)
Параметр Endianness формата : Big
Идентификатор кодека : A_AC3
Продолжительность : 50 м.
Вид битрейта : Постоянный
Битрейт : 384 Кбит/сек
Каналы : 6 каналов
Расположение каналов : Front: L C R, Side: L R, LFE
Частота : 48,0 КГц
Частота кадров : 31,250 кадров/сек (1536 spf)
Метод сжатия : С потерями
Размер потока : 139 Мбайт (3%)
Заголовок : Amedia
Язык : Russian
Default : Нет
Forced : Нет
Аудио #2
Идентификатор : 3
Формат : AC-3
Формат/Информация : Audio Coding 3
Расширение режима : CM (complete main)
Параметр Endianness формата : Big
Идентификатор кодека : A_AC3
Продолжительность : 50 м.
Вид битрейта : Постоянный
Битрейт : 384 Кбит/сек
Каналы : 6 каналов
Расположение каналов : Front: L C R, Side: L R, LFE
Частота : 48,0 КГц
Частота кадров : 31,250 кадров/сек (1536 spf)
Метод сжатия : С потерями
Размер потока : 139 Мбайт (3%)
Заголовок : Кубик в Кубе
Язык : Russian
Default : Нет
Forced : Нет
Аудио #3
Идентификатор : 4
Формат : DTS
Формат/Информация : Digital Theater Systems
Режим : 16
Параметр Endianness формата : Big
Идентификатор кодека : A_DTS
Продолжительность : 50 м.
Вид битрейта : Постоянный
Битрейт : 1509 Кбит/сек
Каналы : 6 каналов
Расположение каналов : Front: L C R, Side: L R, LFE
Частота : 48,0 КГц
Частота кадров : 93,750 кадра/сек (512 spf)
Битовая глубина : 24 бит
Метод сжатия : С потерями
Задержка видео : 11 мс.
Размер потока : 548 Мбайт (13%)
Язык : English
Default : Нет
Forced : Нет
Текст #1
Идентификатор : 5
Формат : UTF-8
Идентификатор кодека : S_TEXT/UTF8
Идентификатор кодека/Информация : UTF-8 Plain Text
Язык : Russian
Default : Нет
Forced : Нет
Текст #2
Идентификатор : 6
Формат : UTF-8
Идентификатор кодека : S_TEXT/UTF8
Идентификатор кодека/Информация : UTF-8 Plain Text
Заголовок : Forced
Язык : English
Default : Нет
Forced : Нет
Текст #3
Идентификатор : 7
Формат : UTF-8
Идентификатор кодека : S_TEXT/UTF8
Идентификатор кодека/Информация : UTF-8 Plain Text
Язык : English
Default : Нет
Forced : Нет



_________________
Проголосуй за трекер Открытый торрент трекер - RUS-MEDIA.ORG

Проголосуй Открытый торрент трекер - RUS-MEDIA.ORG



реклама партнёра


Вернуться к началу
 Профиль Отправить личное сообщение  
 
   Похожие торренты   Автор   Торрент   Размер 
В этой теме нет новых непрочитанных сообщений. Настоящая кровь / True Blood / 1-6 сезоны 1-70 серии из 70 [ужасы, фэнтези, мелодрама, 2008-2013] WEB-DL 720p, Mvo [Fox Life, Novamedia]

salma3

3 | 15

78.87 ГБ

В этой теме нет новых непрочитанных сообщений. Настоящая кровь / True Blood [S01-07] [Драма, ужасы, фантастика, 2008-2014] HDRip, Mvo [FoxLife+Amedia]

salma3

12 | 34

76.63 ГБ

В этой теме нет новых непрочитанных сообщений. Кровь и шоколад / Blood and Chocolate [фэнтези, драма, мелодрама, 2006] BDRip 720p, Dub

salma3

17 | 12

4.64 ГБ

В этой теме нет новых непрочитанных сообщений. Настоящая любовь / True Romance [триллер, драма, криминал, 1993] BDRemux 1080p, Mvo+Dvo+Avo

salma3

9 | 10

36.61 ГБ

В этой теме нет новых непрочитанных сообщений. Кровь невинных / Innocent Blood [ужасы, боевик, мелодрама, 1992] BDRip 1080p, Mvo

salma3

26 | 9

11.08 ГБ

В этой теме нет новых непрочитанных сообщений. Просто кровь / Blood Simple [триллер, криминал, 1984] BDRip 1080p, Mvo+Avo+Sub

salma3

151 | 64

9.58 ГБ

В этой теме нет новых непрочитанных сообщений. Настоящее преступление / True Crime [триллер, драма, криминал, детектив, 1999] BDRip 1080p, Mvo+Sub

salma3

42 | 9

20.53 ГБ


Начать новую тему Ответить на тему  [ 1 сообщение ] 




Для Мосгорсуда, Роскомнадзора и рекламодателей:: mosgorsud-torrent[собачка]yandex.ru
cron