Торрент файл
скачать торрент магнет ссылка Добавлен: 22 дек 2016, 14:03
Размер: 12.42 ГБ
Сидеров: 33
Личеров: 51
Статус: (salma3)
Автор

СообщениеДобавлено: 22 дек 2016, 14:03 

Не в сети
Супермодератор
Аватара пользователя
Дата регистрации:
15 фев 2012, 16:44
Возраст: 28
Спасибо: 6672 / 2146
Сообщения: 46100
Год выхода: 2016
Жанр: Фантастика
Режиссер: Джейсон Стоун, Кааре Эндрюс

В ролях:
Джеймс Таппер, Энн Хеч, Леви Миден, Тейлор Хиксон, Джулия Сара Стоун, Сара Циолковски, Митчелл Каммен, Джейсон Грей, Мэдисон Смит, Патти Ким и др.

Описание сериала:
Главные герои фантастического сериала — многодетное семейство Коупленд: супруги Карен и Джошуа и их дети — практичная и рассудительная Дана, романтичная Брианна и Мэтт. События сериала «Последствия» происходят во время апокалипсиса. Семья Коупленд ведет борьбу за выживание в чудовищных условиях: штормы сменяются землетрясениями и метеоритными дождями, а на планете появляются сверхъестественные существа...

Страна: Канада
Продолжительность: ~00:45:00
Перевод: Любительский (двухголосый) NEON Studio
Субтитры: Отсутствуют
Присутствует логотип релиз группы



Файл
Формат: MKV
Качество: HDTV (720p)

Видео: MPEG-4 AVC, ~ 3000 Кбит/с, 1280x720
Аудио: 48 kHz, AC3 Dolby Digital, 2/0 (L,R) ch, ~192 kbps

Релиз группа:


Формат : Matroska
Версия формата : Version 2
Размер файла : 979 Мбайт
Продолжительность : 42 м.
Общий поток : 3196 Кбит/сек
Дата кодирования : UTC 2016-09-28 20:21:21
Программа кодирования : mkvmerge v4.9.1 ('Ich will') сборка от Jul 11 2011 23:53:15
Библиотека кодирования : libebml v1.2.1 + libmatroska v1.1.1

Видео
Идентификатор : 1
Формат : AVC
Формат/Информация : Advanced Video Codec
Профиль формата : Main@L5.1
Параметр CABAC формата : Да
Параметр ReFrames формата : 1 кадр
Режим смешивания : Header stripping
Идентификатор кодека : V_MPEG4/ISO/AVC
Продолжительность : 42 м.
Битрейт : 2941 Кбит/сек
Ширина : 1280 пикселей
Высота : 720 пикселей
Соотношение сторон : 16:9
Режим частоты кадров : Постоянный
Частота кадров : 25,000 кадров/сек
Цветовое пространство : YUV
Субдискретизация насыщенности : 4:2:0
Битовая глубина : 8 бит
Тип развёртки : Прогрессивная
Бит/(Пиксели*Кадры) : 0.128
Размер потока : 901 Мбайт (92%)
Default : Да
Forced : Нет

Аудио
Идентификатор : 2
Формат : AC-3
Формат/Информация : Audio Coding 3
Расширение режима : CM (complete main)
Параметр Endianness формата : Big
Режим смешивания : Header stripping
Идентификатор кодека : A_AC3
Продолжительность : 42 м.
Вид битрейта : Постоянный
Битрейт : 192 Кбит/сек
Каналы : 2 канала
Расположение каналов : Front: L R
Частота : 48,0 КГц
Частота кадров : 31,250 кадров/сек (1536 spf)
Метод сжатия : С потерями
Размер потока : 58,8 Мбайт (6%)
Default : Да
Forced : Нет


_________________
Проголосуй за трекер Открытый торрент трекер - RUS-MEDIA.ORG

Проголосуй Открытый торрент трекер - RUS-MEDIA.ORG



реклама партнёра


Вернуться к началу
 Профиль Отправить личное сообщение  
 
   Похожие торренты   Автор   Торрент   Размер 
В этой теме нет новых непрочитанных сообщений. Последствия / Aftermath [01х01-11 из 13] (2016) HDTV 720р | NEON Studio

marya111

11 | 20

10.51 ГБ

В этой теме нет новых непрочитанных сообщений. Последствия / Aftermath / 1 сезон 1-13 серия из 13 [Фантастика, 2016] HDTVRip, Dvo [NEON Studio]

salma3

87 | 153

6.51 ГБ

В этой теме нет новых непрочитанных сообщений. Последствия / Aftermath [01х01-12 из 13] ( Фантастика, 2016) HDTVRip | NEON Studio

marya111

19 | 39

6 ГБ

В этой теме нет новых непрочитанных сообщений. Изгоняющий дьявола / The Exorcist [S01] [ужасы, триллер, 2016] HDTV 720р, Dvo [NEON Studio]

salma3

18 | 43

9.34 ГБ

В этой теме нет новых непрочитанных сообщений. Стрелок / Shooter [01х01-03 из 13] (боевик, драма, 2016) HDTV 720р | NEON Studio

marya111

30 | 62

2.61 ГБ

В этой теме нет новых непрочитанных сообщений. Последствия / Aftermath [S01] [Фантастика, 2016] WEB-DLRip, Mvo [Кравец]

salma3

399 | 326

5.07 ГБ

В этой теме нет новых непрочитанных сообщений. Последствия / Aftermath [S01] [Фантастика, 2016] WEB-DLRip 1080p, Mvo [Кравец]

salma3

84 | 114

20.22 ГБ


Начать новую тему Ответить на тему  [ 1 сообщение ] 




Для Мосгорсуда, Роскомнадзора и рекламодателей:: mosgorsud-torrent[собачка]yandex.ru