Торрент файл
скачать торрент магнет ссылка Добавлен: 15 дек 2016, 13:50
Размер: 1.96 ГБ
Сидеров: 60
Личеров: 21
Автор

СообщениеДобавлено: 15 дек 2016, 13:50 

Не в сети
Дата регистрации:
28 сен 2016, 18:10
Спасибо: 211 / 0
Сообщения: 1999
Год выпуска: 2016
Страна: Россия
Производство: «BERG SOUND»
Жанр: Боевик
Режиссёр: Михаил Погосов
В ролях: Дмитрий Клепацкий, Александр Штендлер, Анна Невская, Олег Шкловский, Евгений Березовский, Евгений Осокин, Алексей Агрызков, Игорь Трошин, Павел Кузьмин, Дмитрий Самойлов (II), Тимофей Ухов, Маргус Прангель, Марианна Мартиросян, Анна Смирнова (III), Сергей Морин, Вилен Бабичев, Александр Бадалян, Аршо Арутюнян, Арам Караханян, Юрий Сафаров, Виктор Пипа, Игорь Скурихин, Сергей Погосов (II), Олег Корманн, Дарья Дубникова
Перевод: Не требуется
Субтитры: Нет
Реклама: Отсутствует
Описание: Недолго Артур Королев наслаждался своеобразным отдыхом от опасных дел по ликвидации преступных элементов. Ему пришлось столкнуться с предательством друга, что повлекло за собой серьезные проблемы. Судьба усадила Артура за решетку. Но благодаря силе духа он выдержал все свалившиеся на него испытания. На то он и джокер 2 операция капкан станет новой отправной точкой в его приключениях, наполненных запахом пороха и опасностью. Ещё более закаленный и даже озлобленный из-за несправедливости, коснувшейся его лично, он без жалости и сострадания даст бой бандитам. Его методы борьбы пополнятся новыми примочками. Гнев, который вызвал в нем поступок друга сублимировался в агрессию против преступников, но Артур не забывает, кто является основной


Качество: WEB-DLRip-AVC
Продолжительность: 3 х ~ 00:47:00
Формат: MKV
Видео кодек: MPEG-4 AVC
Аудио кодек: АС3
Свойства видео: 1024x576 (16:9), 25 fps, MPEG-4 AVC ~1 800 kbps avg, 0.122 bit/pixel
Свойства аудио: 48 KHz, AC3, 2 ch, ~192.00 kbps avg [/color][/font]
Общее
Уникальный идентификатор : 187600793556642696911026556584864240912 (0x8D22993D3451CB19B26CEF4E9123D510)
Полное имя : D:Dzhoker.2016.WEB-DLRip(AVC).ExKinoRay1.Dzhoker.2016.WEB-DLRip(AVC).ExKinoRay.mkv
Формат : Matroska
Версия формата : Version 2
Размер файла : 672 Мбайт
Продолжительность : 47 м.
Общий поток : 1990 Кбит/сек
Дата кодирования : UTC 2016-12-13 14:00:47
Программа кодирования : mkvmerge v7.8.0 ('River Man') 32bit built on Apr 3 2015 12:11:22
Библиотека кодирования : libebml v1.3.1 + libmatroska v1.4.2
Видео
Идентификатор : 1
Формат : AVC
Формат/Информация : Advanced Video Codec
Профиль формата : High@L4.1
Параметр CABAC формата : Да
Параметр ReFrames формата : 10 кадров
Идентификатор кодека : V_MPEG4/ISO/AVC
Продолжительность : 47 м.
Битрейт : 1800 Кбит/сек
Ширина : 1024 пикселя
Высота : 576 пикселей
Соотношение сторон : 16:9
Режим частоты кадров : Постоянный
Частота кадров : 25,000 кадров/сек
Цветовое пространство : YUV
Субдискретизация насыщенности : 4:2:0
Битовая глубина : 8 бит
Тип развёртки : Прогрессивная
Бит/(Пиксели*Кадры) : 0.122
Размер потока : 594 Мбайт (88%)
Библиотека кодирования : x264 core 146 r2538 121396c
Настройки программы : cabac=1 / ref=10 / deblock=1:-3:-3 / analyse=0x3:0x133 / me=umh / subme=11 / psy=1 / psy_rd=1.00:0.03 / mixed_ref=1 / me_range=48 / chroma_me=1 / trellis=2 / 8x8dct=1 / cqm=0 / deadzone=21,11 / fast_pskip=0 / chroma_qp_offset=-3 / threads=6 / lookahead_threads=1 / sliced_threads=0 / nr=0 / decimate=0 / interlaced=0 / bluray_compat=0 / constrained_intra=0 / bframes=10 / b_pyramid=2 / b_adapt=2 / b_bias=0 / direct=3 / weightb=1 / open_gop=0 / weightp=2 / keyint=240 / keyint_min=24 / scenecut=40 / intra_refresh=0 / rc_lookahead=40 / rc=2pass / mbtree=0 / bitrate=1800 / ratetol=1.0 / qcomp=0.60 / qpmin=0 / qpmax=69 / qpstep=4 / cplxblur=20.0 / qblur=0.5 / vbv_maxrate=50000 / vbv_bufsize=62500 / nal_hrd=none / filler=0 / ip_ratio=1.40 / pb_ratio=1.30 / aq=1:1.00
Default : Да
Forced : Нет
Аудио
Идентификатор : 2
Формат : AC-3
Формат/Информация : Audio Coding 3
Расширение режима : CM (complete main)
Параметр Endianness формата : Big
Идентификатор кодека : A_AC3
Продолжительность : 47 м.
Вид битрейта : Постоянный
Битрейт : 192 Кбит/сек
Каналы : 2 канала
Расположение каналов : Front: L R
Частота : 48,0 КГц
Битовая глубина : 16 бит
Метод сжатия : С потерями
Размер потока : 64,8 Мбайт (10%)
Default : Да
Forced : Нет






реклама партнёра


Вернуться к началу
 Профиль Отправить личное сообщение  
 
   Похожие торренты   Автор   Торрент   Размер 
В этой теме нет новых непрочитанных сообщений. Джокер 2. Операция Капкан [02x01 из 04] (Боевик, 2016) WEB-DLRip-AVC от ExKinoRay

marya111

19 | 4

671.83 МБ

В этой теме нет новых непрочитанных сообщений. Джокер / Операция Капкан [S02] (Боевик, 2016) WEB-DLRip-AVC от ExKinoRay

marya111

337 | 92

2.62 ГБ

В этой теме нет новых непрочитанных сообщений. Мажор - 2 [01-10 из 12] (2016) WEB-DLRip-AVC от ExKinoRay

marya111

339 | 528

7.18 ГБ

В этой теме нет новых непрочитанных сообщений. Черная кошка [01-10 из 16] (2016) WEB-DLRip-AVC от ExKinoRay

marya111

68 | 114

6.69 ГБ

В этой теме нет новых непрочитанных сообщений. Шакал [01 из 08] (Детектив, 2016) WEB-DLRip-AVC от ExKinoRay

marya111

0 | 0

2.19 ГБ

В этой теме нет новых непрочитанных сообщений. Шакал [01 из 08] (Детектив, 2016) WEB-DLRip-AVC от ExKinoRay

marya111

0 | 0

5.79 ГБ

В этой теме нет новых непрочитанных сообщений. Салам Масква [01-10 из 16] (2016) WEB-DLRip-AVC от ExKinoRay

marya111

0 | 0

7.35 ГБ


Начать новую тему Ответить на тему  [ 1 сообщение ] 




Для Мосгорсуда, Роскомнадзора и рекламодателей:: mosgorsud-torrent[собачка]yandex.ru