Торрент файл
скачать торрент магнет ссылка Добавлен: 08 дек 2016, 19:29
Размер: 3.47 ГБ
Сидеров: 1160
Личеров: 339
Автор

СообщениеДобавлено: 08 дек 2016, 19:29 

Не в сети
Дата регистрации:
28 сен 2016, 18:10
Спасибо: 216 / 0
Сообщения: 1996
Информация о фильме
Оригинальное название: София (София Палеолог)
Год выпуска: 2016
Жанр: Мелодрама, исторический
Режиссер: Алексей Андрианов
В ролях: Мария Андреева, Евгений Цыганов, Александр Балуев, Надежда Маркина, Пётр Зайченко, Борис Невзоров, София Никитчук, Сергей Пускепалис, Илья Ильиных, Николай Козак, Борис Токарев (II), Мириам Сехон, Джулиано Ди Капуа, Егор Корешков, Анатолий Узденский, Сергей Борисов (III), Иван Вакуленко, Иван Колесников, Сергей Марин, Алиса Сапегина, Максим Радугин, Андрей Невраев, Ксана Радченко, Владас Багдонас, Лидия Байрашевская, Амаду Мамадаков, Андрей Евдокимов (II), Сейдулла Молдаханов, Оксана Пчелинова, Владислав Павлов, Семён Трескунов, Кирилл Козаков, Геннадий Суворов
О фильме:
Вторая половина XV века: Русь уже два столетия под гнетом монголо-татарского ига. Иван III, князь Московский, в целях укрепления государства принимает решение о заключении брака с византийской принцессой Зоей Палеолог. После того как турки захватили Константинополь, спасшиеся члены династии византийских императоров Палеологов бежали и нашли покровительство у Папы в Риме. Папа Римский хочет отдать Зою в жены московскому князю с расчетом усилить влияние католической церкви на Руси – однако Зоя, принявшая при крещении имя София, не оправдывает его надежд. Прибыв на русскую землю, она демонстрирует верность новой родине и вере своих предков, православных христиан. Москва встречает новую правительницу неласково. Бояре и митрополит московский Филипп настроены против брака. Решение Ивана Ш о заключении брака принесло московской земле необычайную выгоду: этим браком он укрепляет свой статус Великого Князя, становится более значимым участником европейской политики, а, главное, приобретает настоящую соратницу и единомышленницу. Именно благодаря твердой поддержке Софии князь принимает судьбоносное решение, положившее конец татаро-монгольскому игу на Руси, а также прекращает феодальные междоусобицы.

Страна: Россия
Студия: Кинокомпания «Москино»
Продолжительность: 8 x ~ 00:50:00
Перевод: Не требуется
Файл
Формат: avi
Качество: WEB-DLRip
Видео: XviD build 73, 688x384 (16:9), 25.000 fps, ~ 1050 Kbps (~ 0.160 bit/pixel)
Звук: 48.0 kHz, MP3, 2/0 ch, 128 kbps
Субтитры: нет
General
Complete name : Sofija.2016.XviD.WEB-DLRip.GeneralFilmSofija.01.avi
Format : AVI
Format/Info : Audio Video Interleave
File size : 445 MiB
Duration : 51mn 52s
Overall bit rate : 1 199 Kbps
Writing application : VirtualDubMod 1.5.10.3 | www.virtualdub-fr.org || (build 2550/release)
Writing library : VirtualDubMod build 2550/release
Video
ID : 0
Format : MPEG-4 Visual
Format profile : Advanced Simple@L5
Format settings, BVOP : 1
Format settings, QPel : Yes
Format settings, GMC : No warppoints
Format settings, Matrix : Custom
Codec ID : XVID
Codec ID/Hint : XviD
Duration : 51mn 52s
Bit rate : 1 062 Kbps
Width : 688 pixels
Height : 384 pixels
Display aspect ratio : 16:9
Frame rate : 25.000 fps
Color space : YUV
Chroma subsampling : 4:2:0
Bit depth : 8 bits
Scan type : Progressive
Compression mode : Lossy
Bits/(Pixel*Frame) : 0.161
Stream size : 394 MiB (89%)
Writing library : XviD 73
Audio
ID : 1
Format : MPEG Audio
Format version : Version 1
Format profile : Layer 3
Codec ID : 55
Codec ID/Hint : MP3
Duration : 51mn 52s
Bit rate mode : Constant
Bit rate : 128 Kbps
Channel(s) : 2 channels
Sampling rate : 48.0 KHz
Compression mode : Lossy
Stream size : 47.5 MiB (11%)
Alignment : Aligned on interleaves
Interleave, duration : 40 ms (1.00 video frame)
Interleave, preload duratio : 504 ms
Writing library : LAME3.99r
Encoding settings : -m s -V 4 -q 0 -lowpass 17 -b 128




Релиз от:



Вернуться к началу
 Профиль Отправить личное сообщение  
 
   Похожие торренты   Автор   Торрент   Размер 
В этой теме нет новых непрочитанных сообщений. София / София Палеолог [01-04 из 8] (Мелодрама, исторический, 2016) HDTVRip-AVC от ExKinoRay

marya111

138 | 76

2.91 ГБ

В этой теме нет новых непрочитанных сообщений. София / София Палеолог [01-06 из 8] ( Мелодрама, исторический, 2016) HDTVRip-AVC от ExKinoRay

marya111

435 | 288

4.37 ГБ

В этой теме нет новых непрочитанных сообщений. София (София Палеолог) / Sofia (Серии 1-8 из 8) (Алексей Андрианов) [2016, Мелодрама, исторический , HDTVRipi 1080p] [DD5.1]

Враг Нароода

6 | 9

24.28 ГБ

В этой теме нет новых непрочитанных сообщений. София / София Палеолог [01-08 из 08] (2016) HDTVRip-AVC от ExKinoRay

marya111

572 | 147

5.73 ГБ

В этой теме нет новых непрочитанных сообщений. София Прекрасная / Sofia the First [S03] [мультфильм, фэнтези, 2015] WEBDLRip, Dub

salma3

38 | 14

8.52 ГБ

В этой теме нет новых непрочитанных сообщений. Футбол. Товарищеский матч. Спартак (Москва, Россия) - ЦСКА (София, Болгария) [31.01] (2018) IPTVRip

salma3

0 | 0

1.47 ГБ

В этой теме нет новых непрочитанных сообщений. Код доступа «София» / Sofia / Assassin's Bullet [боевик, триллер, драма, 2012] BDRip 1080p, Mvo

salma3

34 | 5

8.93 ГБ


Начать новую тему Ответить на тему  [ 1 сообщение ] 




Для Мосгорсуда, Роскомнадзора и рекламодателей:: mosgorsud-torrent[собачка]yandex.ru
cron