Торрент файл
скачать торрент магнет ссылка Добавлен: 08 дек 2016, 19:29
Размер: 43.65 ГБ
Сидеров: 10
Личеров: 8
Автор

СообщениеДобавлено: 08 дек 2016, 19:29 

Не в сети
Дата регистрации:
28 сен 2016, 18:10
Спасибо: 217 / 0
Сообщения: 1996

Название: Клан Сопрано
Оригинальное название: The Sopranos
Год выхода: 2002
Страна: США
Студия: Home Box Office (HBO), Brillstein Entertainment Partners, The Park Entertainment
Продолжительность: 13 x ~ 55:00
Жанр: драма, криминал
Режиссер: Тимоти Ван Паттен, Джон Паттерсон, Аллен Култер, ...
В ролях: Джеймс Гандольфини, Лоррейн Бракко, Иди Фалько, Майкл Империоли, Доминик Кьянезе, Стив Ван Зандт, Тони Сирико, Роберт Айлер, Джэми-Линн Сиглер, Аида Туртурро, ...
Перевод:
- Профессиональный (многоголосный, закадровый) Novamedia по заказу Amedia
- Профессиональный (многоголосный, закадровый) Fox Crime
- Профессиональный (многоголосный, закадровый) НТВ
- Авторский (одноголосый, закадровый) Пучков Дмитрий Юрьевич
- Субтитры
О фильме: Повседневная жизнь современного Крестного отца: его мысли — стремительны, действия — решительны, а юмор — черен. Мафиозный босс Северного Джерси Тони Сопрано успешно справляется с проблемами «Семьи».
Но вот собственная семья немного подкачала: дети от рук отбились, брак — под угрозой, мамаша — пилит. Он надеется на помощь психиатра, но как тому рассказать обо всех своих проблемах, если связан «Омертой» — обетом молчания, нарушать который нельзя под страхом смерти?…

Кодек: x264
Качество: BDRip 720p
Видео: 1280x720, 6000 kbps, 23,976 fps
Аудио #1 : AC-3, 6 ch, 384 kbps (Rus) - MVO Amedia
Аудио #2 : AC-3, 2 ch, 192 kbps (Rus) - MVO Fox Crime
Аудио #3 : AC-3, 2 ch, 192 kbps (Rus) - MVO НТВ
Аудио #4 : AC-3, 2 ch, 192 kbps (Rus) - AVO Пучков Дмитрий Юрьевич (Goblin)
Аудио #5: DTS, 6 ch, 1509 kbps (Eng)
Субтитры: Русские, Английские
За исходники спасибо - kapo-kolt

x264 [info]: frame I:750 Avg QP:16.44 size:122356
x264 [info]: frame P:15400 Avg QP:19.42 size: 56294
x264 [info]: frame B:66987 Avg QP:21.37 size: 24447
x264 [info]: consecutive B-frames: 1.5% 1.4% 3.4% 11.6% 16.0% 44.4% 8.9% 2.9% 3.3% 2.8% 1.3% 1.1% 1.4%
Общее
Уникальный идентификатор : 235751803641914766021413487253233932654 (0xB15C2553A7B82825A2760FFAA81D196E)
Полное имя : The Sopranos E01 S04 2002 BDRip 720p.mkv
Формат : Matroska
Версия формата : Version 2
Размер файла : 3,42 Гбайт
Продолжительность : 57 м.
Общий поток : 8463 Кбит/сек
Дата кодирования : UTC 2016-11-29 20:26:22
Программа кодирования : mkvmerge v4.0.0 ('The Stars were mine') сборка от Jun 6 2010 16:18:42
Библиотека кодирования : libebml v1.0.0 + libmatroska v1.0.0
Видео
Идентификатор : 1
Формат : AVC
Формат/Информация : Advanced Video Codec
Профиль формата : High@L4.1
Параметр CABAC формата : Да
Параметр ReFrames формата : 9 кадров
Идентификатор кодека : V_MPEG4/ISO/AVC
Продолжительность : 57 м.
Битрейт : 6000 Кбит/сек
Ширина : 1280 пикселей
Высота : 720 пикселей
Соотношение сторон : 16:9
Режим частоты кадров : Постоянный
Частота кадров : 23,976 (24000/1001) кадра/сек
Цветовое пространство : YUV
Субдискретизация насыщенности : 4:2:0
Битовая глубина : 8 бит
Тип развёртки : Прогрессивная
Бит/(Пиксели*Кадры) : 0.272
Размер потока : 2,35 Гбайт (69%)
Библиотека кодирования : x264 core 146 r2538 121396c
Настройки программы : cabac=1 / ref=9 / deblock=1:-3:-3 / analyse=0x3:0x133 / me=umh / subme=11 / psy=1 / psy_rd=1.00:0.00 / mixed_ref=1 / me_range=32 / chroma_me=1 / trellis=2 / 8x8dct=1 / cqm=0 / deadzone=21,11 / fast_pskip=0 / chroma_qp_offset=-2 / threads=12 / lookahead_threads=2 / sliced_threads=0 / nr=0 / decimate=0 / interlaced=0 / bluray_compat=0 / constrained_intra=0 / bframes=12 / b_pyramid=2 / b_adapt=2 / b_bias=0 / direct=3 / weightb=1 / open_gop=0 / weightp=2 / keyint=240 / keyint_min=23 / scenecut=40 / intra_refresh=0 / rc=2pass / mbtree=0 / bitrate=6000 / ratetol=1.0 / qcomp=0.60 / qpmin=0 / qpmax=69 / qpstep=4 / cplxblur=20.0 / qblur=0.5 / ip_ratio=1.40 / pb_ratio=1.30 / aq=1:0.80
Язык : English
Default : Нет
Forced : Нет
Аудио #1
Идентификатор : 2
Формат : AC-3
Формат/Информация : Audio Coding 3
Расширение режима : CM (complete main)
Параметр Endianness формата : Big
Идентификатор кодека : A_AC3
Продолжительность : 57 м.
Вид битрейта : Постоянный
Битрейт : 384 Кбит/сек
Каналы : 6 каналов
Расположение каналов : Front: L C R, Side: L R, LFE
Частота : 48,0 КГц
Частота кадров : 31,250 кадров/сек (1536 spf)
Метод сжатия : С потерями
Размер потока : 159 Мбайт (5%)
Заголовок : MVO Amedia
Язык : Russian
Default : Нет
Forced : Нет
Аудио #2
Идентификатор : 3
Формат : AC-3
Формат/Информация : Audio Coding 3
Расширение режима : CM (complete main)
Параметр Endianness формата : Big
Идентификатор кодека : A_AC3
Продолжительность : 57 м.
Вид битрейта : Постоянный
Битрейт : 192 Кбит/сек
Каналы : 2 канала
Расположение каналов : Front: L R
Частота : 48,0 КГц
Частота кадров : 31,250 кадров/сек (1536 spf)
Метод сжатия : С потерями
Размер потока : 79,4 Мбайт (2%)
Заголовок : MVO Fox Crime
Язык : Russian
Default : Нет
Forced : Нет
Аудио #3
Идентификатор : 4
Формат : AC-3
Формат/Информация : Audio Coding 3
Расширение режима : CM (complete main)
Параметр Endianness формата : Big
Идентификатор кодека : A_AC3
Продолжительность : 57 м.
Вид битрейта : Постоянный
Битрейт : 192 Кбит/сек
Каналы : 2 канала
Расположение каналов : Front: L R
Частота : 48,0 КГц
Частота кадров : 31,250 кадров/сек (1536 spf)
Метод сжатия : С потерями
Размер потока : 79,4 Мбайт (2%)
Заголовок : MVO НТВ
Язык : Russian
Default : Нет
Forced : Нет
Аудио #4
Идентификатор : 5
Формат : AC-3
Формат/Информация : Audio Coding 3
Расширение режима : CM (complete main)
Параметр Endianness формата : Big
Идентификатор кодека : A_AC3
Продолжительность : 57 м.
Вид битрейта : Постоянный
Битрейт : 192 Кбит/сек
Каналы : 2 канала
Расположение каналов : Front: L R
Частота : 48,0 КГц
Частота кадров : 31,250 кадров/сек (1536 spf)
Метод сжатия : С потерями
Размер потока : 79,4 Мбайт (2%)
Заголовок : AVO Пучков Дмитрий Юрьевич (Goblin)
Язык : Russian
Default : Нет
Forced : Нет
Аудио #5
Идентификатор : 6
Формат : DTS
Формат/Информация : Digital Theater Systems
Режим : 16
Параметр Endianness формата : Big
Идентификатор кодека : A_DTS
Продолжительность : 57 м.
Вид битрейта : Постоянный
Битрейт : 1509 Кбит/сек
Каналы : 6 каналов
Расположение каналов : Front: L C R, Side: L R, LFE
Частота : 48,0 КГц
Частота кадров : 93,750 кадра/сек (512 spf)
Битовая глубина : 24 бит
Метод сжатия : С потерями
Размер потока : 624 Мбайт (18%)
Язык : English
Default : Нет
Forced : Нет
Текст #1
Идентификатор : 7
Формат : UTF-8
Идентификатор кодека : S_TEXT/UTF8
Идентификатор кодека/Информация : UTF-8 Plain Text
Заголовок : Amedia
Язык : Russian
Default : Нет
Forced : Нет
Текст #2
Идентификатор : 8
Формат : UTF-8
Идентификатор кодека : S_TEXT/UTF8
Идентификатор кодека/Информация : UTF-8 Plain Text
Язык : English
Default : Нет
Forced : Нет





Вернуться к началу
 Профиль Отправить личное сообщение  
 
   Похожие торренты   Автор   Торрент   Размер 
В этой теме нет новых непрочитанных сообщений. Клан Сопрано / The Sopranos [S01-06] (Тимоти Ван Паттен, Джон Паттерсон, Аллен Коултер) [1999-2007, Драма, Криминал, WEB-DL 720p | Пучков, Чадов]

Nickolas3435

1 | 121

180.21 ГБ

В этой теме нет новых непрочитанных сообщений. 25-й час / 25th Hour [драма, 2002] BDRip 720p, Dvo

salma3

0 | 0

12.79 ГБ

В этой теме нет новых непрочитанных сообщений. Глубина / Below [Ужасы, триллер, детектив, 2002] BDRip 720p, Dub

salma3

0 | 0

4.65 ГБ

В этой теме нет новых непрочитанных сообщений. Глубина / Below [Ужасы, триллер, детектив, 2002] BDRip 720p, Dub

salma3

0 | 0

3.54 ГБ

В этой теме нет новых непрочитанных сообщений. Детоксикация / D-Tox [боевик, триллер, драма, 2002] BDRip 720p, Mvo

salma3

0 | 0

5.05 ГБ

В этой теме нет новых непрочитанных сообщений. Дорога к дому / Jibeuro [Драма, 2002] BDRip 720p, Mvo

salma3

4 | 5

7.79 ГБ

В этой теме нет новых непрочитанных сообщений. 8 миля / 8 Mile [драма, музыка, 2002] BDRip 720p, Dub

salma3

0 | 0

6.2 ГБ


Начать новую тему Ответить на тему  [ 1 сообщение ] 




Для Мосгорсуда, Роскомнадзора и рекламодателей:: mosgorsud-torrent[собачка]yandex.ru
cron