Торрент файл
скачать торрент магнет ссылка Добавлен: 08 дек 2016, 19:29
Размер: 4.36 ГБ
Сидеров: 498
Личеров: 149
Автор

СообщениеДобавлено: 08 дек 2016, 19:29 

Не в сети
Дата регистрации:
28 сен 2016, 18:10
Спасибо: 211 / 0
Сообщения: 1999
Информация о фильме
Оригинальное название: Казаки
Год выпуска: 2016
Жанр: Детектив, приключения
Режиссер: Станислав Мареев
В ролях: Антон Пампушный, Владимир Гостюхин, Евгений Сидихин, Полина Сидихина, Андрей Ильин, Олег Морозов, Алексей Гришин, Владислав Дёмин, Карина Реука, Ирина Основина, Олег Метелев, Игорь Скрипко, Виктория Полторак, Лилия Кондрова, Елена Аросьева, Екатерина Долгова, Олег Радченко
О фильме:
Майор полиции Егор Даурский в частном порядке расследует убийство своего друга полковника полиции и его жены, в станице Краснодарского края. Здесь он сталкивается с беспределом местной преступной группировки под предводительством некоего Сурового. Также он знакомится с местными казаками и их атаманом Петром Лазаревым, которые противостоят откровенному беспределу властей и криминала. Даурскому удаётся раскрыть убийство друга и наказать виновных. Завершив дело, он возвращается в Москву для того, чтобы перевестись в станицу. Вместе с казаками он надеется избавить местечко от Сурового и его группировки.

Страна: Россия
Студия: Кинокомпания «Star Media»
Продолжительность: 16 x ~ 00:45:00
Перевод: Не требуется
Файл
Формат: avi
Качество: HDTVRip
Видео: XviD build 73, 592x336 (16:9), 25.000 fps, ~ 750 Kbps (~ 0.150 bit/pixel)
Звук: 48.0 kHz, MP3, 2/0 ch, 128 kbps
Субтитры: нет
General
Complete name : Kazaki.2016.XviD.HDTVRip.GeneralFilmKazaki.02.avi
Format : AVI
Format/Info : Audio Video Interleave
File size : 279 MiB
Duration : 44mn 10s
Overall bit rate : 884 Kbps
Writing application : VirtualDubMod 1.5.10.3 | www.virtualdub-fr.org || (build 2550/release)
Writing library : VirtualDubMod build 2550/release
Video
ID : 0
Format : MPEG-4 Visual
Format profile : Advanced Simple@L5
Format settings, BVOP : 1
Format settings, QPel : Yes
Format settings, GMC : No warppoints
Format settings, Matrix : Custom
Codec ID : XVID
Codec ID/Hint : XviD
Duration : 44mn 10s
Bit rate : 746 Kbps
Width : 592 pixels
Height : 336 pixels
Display aspect ratio : 16:9
Frame rate : 25.000 fps
Color space : YUV
Chroma subsampling : 4:2:0
Bit depth : 8 bits
Scan type : Progressive
Compression mode : Lossy
Bits/(Pixel*Frame) : 0.150
Stream size : 236 MiB (84%)
Writing library : XviD 73
Audio
ID : 1
Format : MPEG Audio
Format version : Version 1
Format profile : Layer 3
Codec ID : 55
Codec ID/Hint : MP3
Duration : 44mn 10s
Bit rate mode : Constant
Bit rate : 128 Kbps
Channel(s) : 2 channels
Sampling rate : 48.0 KHz
Compression mode : Lossy
Stream size : 40.4 MiB (14%)
Alignment : Aligned on interleaves
Interleave, duration : 40 ms (1.00 video frame)
Interleave, preload duratio : 504 ms
Writing library : LAME3.99r
Encoding settings : -m s -V 4 -q 0 -lowpass 17 -b 128




Релиз от:




реклама партнёра


Вернуться к началу
 Профиль Отправить личное сообщение  
 
   Похожие торренты   Автор   Торрент   Размер 
В этой теме нет новых непрочитанных сообщений. Казаки [01-16 из 16] (2016) HDTVRip от Generalfilm | КПК

marya111

328 | 88

2.86 ГБ

В этой теме нет новых непрочитанных сообщений. Казаки [01-04 из 16] (Детектив, приключения, 2016) HDTVRip 720p от MediaClub

marya111

40 | 7

4.57 ГБ

В этой теме нет новых непрочитанных сообщений. Опекун [01-08 из 16] (2016) HDTVRip от GeneralFilm

marya111

509 | 192

4.36 ГБ

В этой теме нет новых непрочитанных сообщений. Моя революция (2016) HDTVRip от GeneralFilm

marya111

1069 | 77

1.45 ГБ

В этой теме нет новых непрочитанных сообщений. Отогрей мое сердце ( Мелодрама, 2016) HDTVRip от GeneralFilm

marya111

430 | 41

744.74 МБ

В этой теме нет новых непрочитанных сообщений. Петрович ( Драма, криминал, 2016) HDTVRip от Generalfilm | КПК

marya111

274 | 31

501.85 МБ

В этой теме нет новых непрочитанных сообщений. Холодное сердце [01-02 из 02] (Мелодрама, 2016) HDTVRip от GeneralFilm

marya111

625 | 98

1.46 ГБ


Начать новую тему Ответить на тему  [ 1 сообщение ] 




Для Мосгорсуда, Роскомнадзора и рекламодателей:: mosgorsud-torrent[собачка]yandex.ru