Торрент файл
скачать торрент магнет ссылка Добавлен: 01 дек 2016, 20:36
Размер: 2.91 ГБ
Сидеров: 138
Личеров: 76
Автор

СообщениеДобавлено: 01 дек 2016, 20:36 

Не в сети
Дата регистрации:
28 сен 2016, 18:10
Спасибо: 62 / 0
Сообщения: 1040
Год выпуска: 2016
Страна: Россия
Производство: Кинокомпания «Москино» по заказу телеканала Россия 1 и Министерства Культуры РФ
Жанр: Мелодрама, исторический
Режиссёр: Алексей Андрианов
В ролях: Мария Андреева, Евгений Цыганов, Александр Балуев, Надежда Маркина, Пётр Зайченко, Борис Невзоров, София Никитчук, Сергей Пускепалис, Илья Ильиных, Николай Козак, Борис Токарев (II), Мириам Сехон, Джулиано Ди Капуа, Егор Корешков, Анатолий Узденский, Сергей Борисов (III), Иван Вакуленко, Иван Колесников, Сергей Марин, Алиса Сапегина, Максим Радугин, Андрей Невраев, Ксана Радченко, Владас Багдонас, Лидия Байрашевская, Амаду Мамадаков, Андрей Евдокимов (II), Сейдулла Молдаханов, Оксана Пчелинова, Владислав Павлов, Семён Трескунов, Кирилл Козаков, Геннадий Суворов
Перевод: Не требуется
Субтитры: Нет
Реклама: Отсутствует
Описание: История средневековой Руси глазами Софии Палеолог, последней наследницы византийского престола, жены московского князя Ивана III и бабушки Ивана Грозного.


Качество: HDTVRip-AVC
Продолжительность: 4 х 00:50:00
Формат: MKV
Видео кодек: MPEG-4 AVC
Аудио кодек: АС3
Свойства видео: 1024x576 (16:9), 25 fps, MPEG-4 AVC ~1 800 kbps avg, 0.122 bit/pixel
Свойства аудио: 48 KHz, AC3, 2 ch, ~192.00 kbps avg[/color][/font]
Общее
Уникальный идентификатор : 190725413735723515710569917611425129300 (0x8F7C60E873916A8492E3B2747273E354)
Полное имя : D:Sofija.2016.HDTVRip(AVC).ExKinoRaySofija.01.2016.HDTVRip(AVC).ExKinoRay.mkv
Формат : Matroska
Версия формата : Version 2
Размер файла : 737 Мбайт
Продолжительность : 51 м.
Общий поток : 1993 Кбит/сек
Дата кодирования : UTC 2016-11-29 02:14:31
Программа кодирования : mkvmerge v7.8.0 ('River Man') 32bit built on Apr 3 2015 12:11:22
Библиотека кодирования : libebml v1.3.1 + libmatroska v1.4.2
Видео
Идентификатор : 1
Формат : AVC
Формат/Информация : Advanced Video Codec
Профиль формата : High@L4.1
Параметр CABAC формата : Да
Параметр ReFrames формата : 10 кадров
Идентификатор кодека : V_MPEG4/ISO/AVC
Продолжительность : 51 м.
Битрейт : 1800 Кбит/сек
Ширина : 1024 пикселя
Высота : 576 пикселей
Соотношение сторон : 16:9
Режим частоты кадров : Постоянный
Частота кадров : 25,000 кадров/сек
Цветовое пространство : YUV
Субдискретизация насыщенности : 4:2:0
Битовая глубина : 8 бит
Тип развёртки : Прогрессивная
Бит/(Пиксели*Кадры) : 0.122
Размер потока : 651 Мбайт (88%)
Библиотека кодирования : x264 core 146 r2538 121396c
Настройки программы : cabac=1 / ref=10 / deblock=1:-3:-3 / analyse=0x3:0x133 / me=umh / subme=10 / psy=1 / psy_rd=1.00:0.03 / mixed_ref=1 / me_range=48 / chroma_me=1 / trellis=2 / 8x8dct=1 / cqm=0 / deadzone=21,11 / fast_pskip=0 / chroma_qp_offset=-3 / threads=6 / lookahead_threads=1 / sliced_threads=0 / nr=0 / decimate=0 / interlaced=0 / bluray_compat=0 / constrained_intra=0 / bframes=10 / b_pyramid=2 / b_adapt=2 / b_bias=0 / direct=3 / weightb=1 / open_gop=0 / weightp=2 / keyint=240 / keyint_min=24 / scenecut=40 / intra_refresh=0 / rc_lookahead=40 / rc=2pass / mbtree=0 / bitrate=1800 / ratetol=1.0 / qcomp=0.60 / qpmin=0 / qpmax=69 / qpstep=4 / cplxblur=20.0 / qblur=0.5 / vbv_maxrate=50000 / vbv_bufsize=62500 / nal_hrd=none / filler=0 / ip_ratio=1.40 / pb_ratio=1.30 / aq=1:1.00
Default : Да
Forced : Нет
Аудио
Идентификатор : 2
Формат : AC-3
Формат/Информация : Audio Coding 3
Расширение режима : CM (complete main)
Параметр Endianness формата : Big
Идентификатор кодека : A_AC3
Продолжительность : 51 м.
Вид битрейта : Постоянный
Битрейт : 192 Кбит/сек
Каналы : 2 канала
Расположение каналов : Front: L R
Частота : 48,0 КГц
Битовая глубина : 16 бит
Метод сжатия : С потерями
Размер потока : 71,0 Мбайт (10%)
Default : Да
Forced : Нет






реклама партнёра


Вернуться к началу
 Профиль Отправить личное сообщение  
 
   Похожие торренты   Автор   Торрент   Размер 
В этой теме нет новых непрочитанных сообщений. София / София Палеолог [01-06 из 8] ( Мелодрама, исторический, 2016) HDTVRip-AVC от ExKinoRay

marya111

435 | 288

4.37 ГБ

В этой теме нет новых непрочитанных сообщений. София / София Палеолог [01-08 из 08] (2016) HDTVRip-AVC от ExKinoRay

marya111

572 | 147

5.73 ГБ

В этой теме нет новых непрочитанных сообщений. София (София Палеолог) / Sofia (Серии 1-8 из 8) (Алексей Андрианов) [2016, Мелодрама, исторический , HDTVRipi 1080p] [DD5.1]

Враг Нароода

6 | 9

24.28 ГБ

В этой теме нет новых непрочитанных сообщений. София / София Палеолог [01-08 из 08] (2016) WEB-DLRip от GeneralFilm

marya111

1160 | 339

3.47 ГБ

В этой теме нет новых непрочитанных сообщений. София Прекрасная: История принцессы / Sofia the First: Once Upon a Princess [Мультфильм, 2012] DVD5, Dub+Sub

Dracon

117 | 25

4.23 ГБ

В этой теме нет новых непрочитанных сообщений. Discovery. Гигантские самолеты. София 747 / Mighty planes. Sofia 747 [документальный, 2014] SATRip, Avo

salma3

1 | 4

368.88 МБ

В этой теме нет новых непрочитанных сообщений. София Прекрасная: История принцессы / Sofia the First: Once Upon a Princess [мюзикл, фэнтези, семейный, 2012] DVDRip, Dub

salma3

134 | 7

652.47 МБ


Начать новую тему Ответить на тему  [ 1 сообщение ] 




Для Мосгорсуда, Роскомнадзора и рекламодателей:: mosgorsud-torrent[собачка]yandex.ru